<?xml version="1.0" standalone="no"?>
<!DOCTYPE svg PUBLIC "-//W3C//DTD SVG 1.1//EN" "http://www.w3.org/Graphics/SVG/1.1/DTD/svg11.dtd" >
<svg xmlns="http://www.w3.org/2000/svg">
<metadata></metadata>
<defs>
<font id="FontAwesomeRegular" horiz-adv-x="900" >
<font-face units-per-em="1000" ascent="750" descent="-250" />
<missing-glyph horiz-adv-x="250" />
<glyph horiz-adv-x="0" />
<glyph horiz-adv-x="0" />
<glyph unicode=" "  horiz-adv-x="250" />
<glyph unicode="&#x09;" horiz-adv-x="250" />
<glyph unicode="&#xa0;" horiz-adv-x="250" />
<glyph unicode="&#xa8;" horiz-adv-x="1000" />
<glyph unicode="&#xa9;" horiz-adv-x="1000" />
<glyph unicode="&#xae;" horiz-adv-x="1000" />
<glyph unicode="&#xb4;" horiz-adv-x="1000" />
<glyph unicode="&#xc6;" horiz-adv-x="1000" />
<glyph unicode="&#xcd;" horiz-adv-x="1000" />
<glyph unicode="&#x2000;" horiz-adv-x="383" />
<glyph unicode="&#x2001;" horiz-adv-x="766" />
<glyph unicode="&#x2002;" horiz-adv-x="383" />
<glyph unicode="&#x2003;" horiz-adv-x="766" />
<glyph unicode="&#x2004;" horiz-adv-x="255" />
<glyph unicode="&#x2005;" horiz-adv-x="191" />
<glyph unicode="&#x2006;" horiz-adv-x="127" />
<glyph unicode="&#x2007;" horiz-adv-x="127" />
<glyph unicode="&#x2008;" horiz-adv-x="95" />
<glyph unicode="&#x2009;" horiz-adv-x="153" />
<glyph unicode="&#x200a;" horiz-adv-x="42" />
<glyph unicode="&#x202f;" horiz-adv-x="153" />
<glyph unicode="&#x203a;" horiz-adv-x="1000" />
<glyph unicode="&#x205f;" horiz-adv-x="191" />
<glyph unicode="&#x20ac;" horiz-adv-x="1000" />
<glyph unicode="&#x2122;" horiz-adv-x="1000" />
<glyph unicode="&#x221e;" horiz-adv-x="1000" />
<glyph unicode="&#xe000;" horiz-adv-x="500" d="M0 0v0v0v0v0z" />
<glyph unicode="&#xf000;" horiz-adv-x="750" d="M441 388v-313h121q16 0 27 -11t11 -26q0 -16 -11 -27t-27 -11h-375q-15 0 -26 11t-11 27q0 15 11 26t26 11h122v313l-298 298q-18 18 -8 41t34 23h675q25 0 35 -23t-8 -41z" />
<glyph unicode="&#xf001;" horiz-adv-x="727" d="M687 765q17 0 28.5 -11.5t11.5 -28.5v-502q0 -29 -13.5 -51t-35.5 -37t-48.5 -23t-51.5 -8t-51.5 8t-48 23t-35 37t-13.5 51q0 28 13.5 50.5t35 37.5t48 23t51.5 8q13 0 25.5 -2t24.5 -5v262l-331 -95v-398q0 -29 -13.5 -51t-35 -37t-48 -23t-51.5 -8q-26 0 -52 8t-48 23 t-35.5 37t-13.5 51q0 28 13.5 50.5t35.5 37.5t48 23t52 8q12 0 24.5 -2t24.5 -5v380q0 13 8 23.5t21 14.5q11 3 48.5 14t87 25.5t105 30.5t103 29.5t80 22.5t36.5 9z" />
<glyph unicode="&#xf002;" horiz-adv-x="780" d="M325 563q10 0 17 -7t7 -18q0 -10 -7 -17t-17 -7q-31 0 -52.5 -21.5t-21.5 -52.5q0 -10 -7 -17t-17 -7q-11 0 -18 7t-7 17q0 25 9.5 47.5t26.5 39.5t39 26.5t48 9.5zM130 440q0 -41 15.5 -76.5t42 -61.5t62 -41.5t75.5 -15.5t75.5 15.5t62 41.5t42 61.5t15.5 76.5 q0 40 -15.5 75.5t-42 62t-62 42t-75.5 15.5t-75.5 -15.5t-62 -42t-42 -62t-15.5 -75.5zM771 86q9 -9 9 -23q0 -8 -9 -21t-22 -26t-26 -22t-21 -9q-14 0 -23 9l-175 175q-40 -26 -85.5 -40t-93.5 -14q-67 0 -126 25.5t-103.5 70t-70 103.5t-25.5 126t25.5 126t70 103.5 t103.5 70t126 25.5t126 -25.5t103.5 -70t70 -103.5t25.5 -126q0 -48 -14 -93.5t-40 -85.5z" />
<glyph unicode="&#xf003;" d="M825 75v416q-15 -15 -28 -24l-104 -78t-103 -80q-30 -24 -64.5 -46t-76.5 -22q-40 0 -74.5 22t-64.5 46q-51 41 -103 80l-104 78q-13 9 -28 24v-416h750zM75 675v-32q0 -15 7 -32t17.5 -32.5t23 -29t24.5 -22.5q49 -37 97.5 -73.5t97.5 -74.5q10 -8 23.5 -18.5t28 -20.5 t29 -17t26.5 -7h1h1q12 0 26.5 7t29 17t28 20.5t23.5 18.5q49 38 97.5 74.5t97.5 73.5q12 9 24.5 22.5t23 29t17.5 32.5t7 32v32h-750zM844 750q23 0 39.5 -16.5t16.5 -39.5v-638q0 -23 -16.5 -39.5t-39.5 -16.5h-788q-23 0 -39.5 16.5t-16.5 39.5v638q0 23 16.5 39.5 t39.5 16.5h788v0z" />
<glyph unicode="&#xf004;" horiz-adv-x="880" d="M641 765q55 0 99.5 -17t75.5 -48t47.5 -76t16.5 -100q0 -32 -9 -63.5t-25 -61t-36.5 -56t-42.5 -48.5l-300 -299q-11 -11 -27 -11q-15 0 -28 11l-300 300q-22 22 -42.5 48.5t-36 55.5t-24.5 60.5t-9 63.5q0 55 16.5 100t47.5 76t75 48t99 17q29 0 57 -9t53.5 -23.5 t48.5 -33.5t43 -38q19 19 42.5 38t49 33.5t53 23.5t56.5 9z" />
<glyph unicode="&#xf005;" horiz-adv-x="818" d="M13 439q-17 16 -12.5 29.5t26.5 16.5l247 36l111 224q10 20 24 20t24 -20l111 -224l247 -36q22 -3 26.5 -16.5t-11.5 -29.5l-179 -174l42 -246q4 -22 -7.5 -30.5t-31.5 2.5l-221 116l-221 -116q-20 -11 -31.5 -2.5t-7.5 30.5l42 246z" />
<glyph unicode="&#xf006;" horiz-adv-x="818" d="M409 765q9 0 15 -6.5t9 -13.5l111 -224l247 -36q9 -2 18 -6.5t9 -15.5q0 -7 -3.5 -13t-8.5 -11l-179 -174l42 -246q0 -2 0.5 -4.5t0.5 -5.5q0 -10 -4.5 -17t-15.5 -7t-20 6l-221 116l-221 -116q-9 -6 -19 -6q-11 0 -16 7t-5 17q0 3 0.5 5.5t0.5 4.5l42 246l-178 174 q-5 5 -9 11t-4 13q0 11 9 15.5t18 6.5l247 36l111 224q3 7 9.5 13.5t14.5 6.5zM326 450l-185 -27l134 -131l-32 -184l166 87l166 -87l-32 184l134 131l-185 27l-83 168z" />
<glyph unicode="&#xf007;" horiz-adv-x="765" d="M495 381q13 -2 37.5 -5t51 -6.5t49.5 -7t33 -6.5q17 -5 34.5 -20.5t32 -36t23.5 -42.5t9 -40v-189q-5 -2 -11 -7t-13 -9.5t-13.5 -8t-10.5 -3.5h-669q-17 0 -26 10.5t-22 17.5v189q0 18 9 40t23.5 42t32 36t34.5 21q9 3 32.5 6.5t50 7t51 6.5t37.5 5q-45 29 -70.5 75 t-25.5 100q0 43 16.5 81t44.5 66.5t66 45t81 16.5t81 -16.5t66.5 -45t45 -66.5t16.5 -81q0 -53 -25.5 -99.5t-70.5 -75.5z" />
<glyph unicode="&#xf008;" d="M844 675q0 8 -5.5 13.5t-13.5 5.5h-75q-8 0 -13.5 -5.5t-5.5 -13.5v-75q0 -8 5.5 -13.5t13.5 -5.5h75q8 0 13.5 5.5t5.5 13.5v75zM844 500q0 8 -5.5 13.5t-13.5 5.5h-75q-8 0 -13.5 -5.5t-5.5 -13.5v-75q0 -8 5.5 -13.5t13.5 -5.5h75q8 0 13.5 5.5t5.5 13.5v75zM844 325 q0 8 -5.5 13.5t-13.5 5.5h-75q-8 0 -13.5 -5.5t-5.5 -13.5v-75q0 -8 5.5 -13.5t13.5 -5.5h75q8 0 13.5 5.5t5.5 13.5v75zM844 150q0 8 -5.5 13.5t-13.5 5.5h-75q-8 0 -13.5 -5.5t-5.5 -13.5v-75q0 -8 5.5 -13.5t13.5 -5.5h75q8 0 13.5 5.5t5.5 13.5v75zM675 675 q0 8 -5.5 13.5t-13.5 5.5h-412q-8 0 -13.5 -5.5t-5.5 -13.5v-250q0 -8 5.5 -13.5t13.5 -5.5h412q8 0 13.5 5.5t5.5 13.5v250zM675 325q0 8 -5.5 13.5t-13.5 5.5h-412q-8 0 -13.5 -5.5t-5.5 -13.5v-250q0 -8 5.5 -13.5t13.5 -5.5h412q8 0 13.5 5.5t5.5 13.5v250zM169 675 q0 8 -5.5 13.5t-13.5 5.5h-75q-8 0 -13.5 -5.5t-5.5 -13.5v-75q0 -8 5.5 -13.5t13.5 -5.5h75q8 0 13.5 5.5t5.5 13.5v75zM169 500q0 8 -5.5 13.5t-13.5 5.5h-75q-8 0 -13.5 -5.5t-5.5 -13.5v-75q0 -8 5.5 -13.5t13.5 -5.5h75q8 0 13.5 5.5t5.5 13.5v75zM169 325 q0 8 -5.5 13.5t-13.5 5.5h-75q-8 0 -13.5 -5.5t-5.5 -13.5v-75q0 -8 5.5 -13.5t13.5 -5.5h75q8 0 13.5 5.5t5.5 13.5v75zM169 150q0 8 -5.5 13.5t-13.5 5.5h-75q-8 0 -13.5 -5.5t-5.5 -13.5v-75q0 -8 5.5 -13.5t13.5 -5.5h75q8 0 13.5 5.5t5.5 13.5v75zM844 750 q23 0 39.5 -16.5t16.5 -39.5v-638q0 -23 -16.5 -39.5t-39.5 -16.5h-788q-23 0 -39.5 16.5t-16.5 39.5v638q0 23 16.5 39.5t39.5 16.5h788v0z" />
<glyph unicode="&#xf009;" d="M863 338q15 0 26 -11t11 -27v-262q0 -16 -11 -27t-26 -11h-338q-16 0 -26.5 11t-10.5 27v262q0 16 10.5 27t26.5 11h338v0zM863 750q15 0 26 -11t11 -26v-263q0 -16 -11 -26.5t-26 -10.5h-338q-16 0 -26.5 10.5t-10.5 26.5v263q0 15 10.5 26t26.5 11h338v0zM375 338 q16 0 27 -11t11 -27v-262q0 -16 -11 -27t-27 -11h-337q-16 0 -27 11t-11 27v262q0 16 11 27t27 11h337v0zM375 750q16 0 27 -11t11 -26v-263q0 -16 -11 -26.5t-27 -10.5h-337q-16 0 -27 10.5t-11 26.5v263q0 15 11 26t27 11h337v0z" />
<glyph unicode="&#xf00a;" d="M650 170q0 16 11 26.5t27 10.5h175q15 0 26 -10.5t11 -26.5v-132q0 -16 -11 -27t-26 -11h-175q-16 0 -27 11t-11 27v132zM538 207q15 0 26 -10.5t11 -26.5v-132q0 -16 -11 -27t-26 -11h-175q-16 0 -27 11t-11 27v132q0 16 11 26.5t27 10.5h175zM863 750q15 0 26 -11 t11 -26v-133q0 -16 -11 -27t-26 -11h-175q-16 0 -27 11t-11 27v133q0 15 11 26t27 11h175zM650 430q0 16 11 26.5t27 10.5h175q15 0 26 -10.5t11 -26.5v-110q0 -16 -11 -27t-26 -11h-175q-16 0 -27 11t-11 27v110zM575 320q0 -16 -11 -27t-26 -11h-175q-16 0 -27 11t-11 27 v110q0 16 11 26.5t27 10.5h175q15 0 26 -10.5t11 -26.5v-110zM363 542q-16 0 -27 11t-11 27v133q0 15 11 26t27 11h175q15 0 26 -11t11 -26v-133q0 -16 -11 -27t-26 -11h-175zM213 207q15 0 26 -10.5t11 -26.5v-132q0 -16 -11 -27t-26 -11h-175q-16 0 -27 11t-11 27v132 q0 16 11 26.5t27 10.5h175zM250 320q0 -16 -11 -27t-26 -11h-175q-16 0 -27 11t-11 27v110q0 16 11 26.5t27 10.5h175q15 0 26 -10.5t11 -26.5v-110zM250 580q0 -16 -11 -27t-26 -11h-175q-16 0 -27 11t-11 27v133q0 15 11 26t27 11h175q15 0 26 -11t11 -26v-133z" />
<glyph unicode="&#xf00b;" d="M863 750q15 0 26 -11t11 -26v-133q0 -16 -11 -27t-26 -11h-530q-16 0 -27 11t-11 27v133q0 15 11 26t27 11h530zM295 430q0 16 11 26.5t27 10.5h530q15 0 26 -10.5t11 -26.5v-110q0 -16 -11 -27t-26 -11h-530q-16 0 -27 11t-11 27v110zM295 170q0 16 11 26.5t27 10.5h530 q15 0 26 -10.5t11 -26.5v-132q0 -16 -11 -27t-26 -11h-530q-16 0 -27 11t-11 27v132zM183 207q15 0 26 -10.5t11 -26.5v-132q0 -16 -11 -27t-26 -11h-145q-16 0 -27 11t-11 27v132q0 16 11 26.5t27 10.5h145zM220 580q0 -16 -11 -27t-26 -11h-145q-16 0 -27 11t-11 27v133 q0 15 11 26t27 11h145q15 0 26 -11t11 -26v-133zM220 320q0 -16 -11 -27t-26 -11h-145q-16 0 -27 11t-11 27v110q0 16 11 26.5t27 10.5h145q15 0 26 -10.5t11 -26.5v-110z" />
<glyph unicode="&#xf00c;" d="M335 45q-17 0 -36.5 8t-30.5 19l-257 258q-11 11 -11 27.5t11 27.5l85 85q11 11 27.5 11t27.5 -11l178 -178q11 -11 27.5 -11t27.5 11l364 364q11 11 27.5 11t27.5 -11l85 -85q11 -11 11 -27.5t-11 -27.5l-444 -444q-11 -11 -30.5 -19t-35.5 -8h-43z" />
<glyph unicode="&#xf00d;" horiz-adv-x="750" d="M736 127q14 -14 14 -32.5t-14 -32.5l-49 -50q-14 -14 -33 -14t-33 14l-246 247l-247 -247q-14 -14 -32.5 -14t-32.5 14l-49 49q-14 14 -14 33t14 33l248 249l-248 244q-14 14 -14 33t14 33l49 49q14 14 33 14t33 -14l246 -246l246 246q14 14 33 14t33 -14l49 -49 q14 -14 14 -33t-14 -33l-248 -249l248 -244v0z" />
<glyph unicode="&#xf00e;" horiz-adv-x="780" d="M439 472q16 0 16 -16v-32q0 -7 -4.5 -12t-11.5 -5h-81v-81q0 -7 -5 -11.5t-12 -4.5h-32q-16 0 -16 16v81h-82q-7 0 -11.5 5t-4.5 12v32q0 16 16 16h82v82q0 16 16 16h32q7 0 12 -4.5t5 -11.5v-82h81v0zM130 440q0 -41 15.5 -76.5t42 -61.5t62 -41.5t75.5 -15.5t76 15.5 t62 41.5t41.5 61.5t15.5 76.5q0 40 -15.5 75.5t-41.5 62t-62 42t-76 15.5t-75.5 -15.5t-62 -42t-42 -62t-15.5 -75.5zM771 86q9 -9 9 -22.5t-9 -23.5l-46 -46q-10 -9 -23.5 -9t-22.5 9l-175 175q-38 -26 -83.5 -40t-95.5 -14q-67 0 -126 25.5t-103.5 69.5t-70 103t-25.5 127 q0 67 25.5 126t70 103.5t103.5 70t126 25.5t126.5 -25.5t103.5 -70t69.5 -103.5t25.5 -126q0 -50 -14 -95.5t-40 -83.5l175 -175v0z" />
<glyph unicode="&#xf010;" horiz-adv-x="780" d="M439 472q16 0 16 -16v-32q0 -7 -4.5 -12t-11.5 -5h-228q-7 0 -11.5 5t-4.5 12v32q0 16 16 16h228v0zM130 440q0 -41 15.5 -76.5t42 -61.5t62 -41.5t75.5 -15.5t76 15.5t62 41.5t41.5 61.5t15.5 76.5q0 40 -15.5 75.5t-41.5 62t-62 42t-76 15.5t-75.5 -15.5t-62 -42 t-42 -62t-15.5 -75.5zM771 86q9 -9 9 -22.5t-9 -23.5l-46 -46q-10 -9 -23.5 -9t-22.5 9l-175 175q-38 -26 -83.5 -40t-95.5 -14q-67 0 -126 25.5t-103.5 69.5t-70 103t-25.5 127q0 67 25.5 126t70 103.5t103.5 70t126 25.5t126.5 -25.5t103.5 -70t69.5 -103.5t25.5 -126 q0 -50 -14 -95.5t-40 -83.5l175 -175v0z" />
<glyph unicode="&#xf011;" horiz-adv-x="727" d="M568 649q75 -51 117 -130.5t42 -170.5q0 -75 -28.5 -141t-78 -115.5t-116 -78t-141.5 -28.5t-141 28.5t-115.5 78t-78 115.5t-28.5 141q0 91 42 170.5t117 130.5q6 5 14 3q9 -2 12 -8l44 -64q5 -6 3 -13.5t-8 -12.5q-52 -35 -80.5 -89t-28.5 -117q0 -51 19.5 -96.5 t53 -79t79 -53t96.5 -19.5t96.5 19.5t79.5 53t53.5 79t19.5 96.5q0 63 -29 117t-80 89q-7 5 -8 12q-2 8 3 14l43 64q5 6 12.5 7.5t14.5 -2.5zM325 368q-8 0 -13.5 5.5t-5.5 13.5v344q0 8 5.5 13.5t13.5 5.5h77q8 0 13.5 -5.5t5.5 -13.5v-344q0 -8 -5.5 -13.5t-13.5 -5.5h-77 v0z" />
<glyph unicode="&#xf012;" d="M131 19q0 -8 -5 -13.5t-13 -5.5h-94q-19 0 -19 19v127q0 8 5.5 13.5t13.5 5.5h94q8 0 13 -5.5t5 -13.5v-127zM323 19q0 -8 -5 -13.5t-13 -5.5h-94q-8 0 -13.5 5.5t-5.5 13.5v212q0 8 5.5 13.5t13.5 5.5h94q8 0 13 -5.5t5 -13.5v-212zM516 19q0 -8 -5.5 -13.5t-13.5 -5.5 h-94q-8 0 -13.5 5.5t-5.5 13.5v330q0 8 5.5 13.5t13.5 5.5h94q8 0 13.5 -5.5t5.5 -13.5v-330zM708 19q0 -8 -5.5 -13.5t-13.5 -5.5h-94q-8 0 -13 5.5t-5 13.5v486q0 8 5 13.5t13 5.5h94q8 0 13.5 -5.5t5.5 -13.5v-486zM900 19q0 -19 -19 -19h-93q-19 0 -19 19v712 q0 19 19 19h93q19 0 19 -19v-712z" />
<glyph unicode="&#xf013;" horiz-adv-x="778" d="M389 257q24 0 45.5 9.5t37 25.5t25 37.5t9.5 45.5t-9.5 45t-25 37t-37 25t-45.5 9t-45.5 -9t-37.5 -25t-25 -37t-9 -45t9 -45.5t25 -37.5t37.5 -25.5t45.5 -9.5zM670 456q24 -5 50.5 -6.5t49.5 -9.5q8 -2 8 -9v-115q0 -6 -14.5 -10.5t-33.5 -7.5t-37 -4.5t-24 -2.5 q-7 -28 -23 -57q27 -40 59 -77l3 -7q0 -4 -13.5 -19t-30.5 -32t-32.5 -30.5t-19.5 -13.5q-1 0 -13 9t-26.5 20t-27.5 21t-16 12q-14 -8 -28.5 -13.5t-29.5 -9.5q-1 -6 -2.5 -24t-4.5 -37t-7 -34t-10 -15h-116q-7 0 -9 8q-7 24 -9.5 50.5t-5.5 50.5q-30 9 -57 24 q-20 -15 -39.5 -29.5t-38.5 -30.5l-6 -2q-3 0 -18 13.5t-31.5 30.5t-30 32t-13.5 19q0 1 8 13t18.5 26t20.5 27t13 17q-16 27 -25 60q-25 5 -51 6.5t-49 9.5q-8 2 -8 9v115q0 6 15 10.5t33.5 7.5t36 4.5t23.5 2.5q9 30 24 57q-27 40 -59 77l-3 7q0 4 13.5 19t30.5 32 t32.5 30.5t19.5 13.5q1 0 13 -9t26.5 -20t27.5 -21t16 -12q14 8 28.5 13t29.5 10q0 6 1.5 24t4.5 36.5t7.5 33.5t10.5 15h116q7 0 9 -7q6 -24 8.5 -50.5t6.5 -51.5q15 -4 29 -9.5t28 -13.5q4 3 16.5 13t27 21t26 19.5t14.5 8.5t18 -13.5t31.5 -30.5t30 -32t13.5 -19 q0 -2 -8.5 -14t-19 -26t-20.5 -27t-12 -16q16 -27 25 -60z" />
<glyph unicode="&#xf014;" horiz-adv-x="648" d="M432 94q0 -19 4 -19h11q3 1 13 1.5t15 0.5q5 1 8.5 6.5t4.5 13.5q0 11 0.5 19t0.5 14q0 7 1 12v19.5t1 17.5q2 33 3 66.5t3 67.5q0 9 1 20q1 9 1.5 22t1.5 28q0 8 -5 13t-13 5l-33 -2q-8 0 -13 -5.5t-5 -13.5v-286zM357 379q0 8 -11 13t-14 5h-15q-3 0 -14 -5t-11 -13 v-285q0 -8 5 -13.5t13 -5.5h28q8 0 13.5 5.5t5.5 13.5v285zM217 380q0 8 -5.5 13.5t-13.5 5.5l-33 2q-8 0 -13 -5t-5 -13q1 -15 1 -28t1 -22q0 -11 1 -19q2 -34 3.5 -68t3.5 -67q1 -8 1 -17.5v-19.5v-12q0 -6 0.5 -14t1.5 -19q1 -8 9.5 -14t13.5 -6q5 -1 10 -1t8 -1h11 q5 0 5 19v286zM397 472q14 0 23 1q33 1 76.5 3.5t84.5 7.5q-5 -76 -8 -154.5t-7 -154.5q-1 -19 -1.5 -42.5t-2 -45.5t-6 -40.5t-14.5 -28.5q-12 -11 -42 -14.5t-58 -3.5h-236q-29 0 -58.5 3.5t-41.5 14.5q-10 10 -14.5 28.5t-6 40.5t-2 45.5t-1.5 42.5q-4 76 -7.5 154.5 t-7.5 154.5q41 -5 84.5 -7.5t75.5 -3.5q9 -1 23 -1h74h73zM391 642q1 9 1.5 15t-0.5 11q-11 3 -29.5 4.5t-38.5 1.5t-38.5 -1.5t-29.5 -4.5q-1 -5 -0.5 -11t1.5 -15q9 1 20 1h47l67 -1v0zM647 615q1 -9 1 -17v-16v-16t-1 -17q-10 -6 -30.5 -10t-45.5 -7t-51 -5t-48 -3 t-37 -1.5t-16 -0.5l-95 -1h-13h-28t-54 1q-2 0 -16.5 0.5t-36.5 1.5t-48 3t-51 5t-45.5 7t-30.5 10q0 9 -0.5 17t-0.5 16t0.5 16t0.5 17q11 6 32.5 10t47 7t52.5 5t49 3q-2 16 -1 32t7 33q1 4 6 11.5t18.5 15t40 13t71.5 5.5t71.5 -5.5t40 -13t18 -15.5t6.5 -12 q6 -17 7 -32.5t-1 -31.5q22 -1 49 -3t53 -5t47 -7t32 -10z" />
<glyph unicode="&#xf015;" d="M886 404q10 -8 13 -19.5t-1 -22.5q-10 -24 -36 -24h-75v-300q0 -16 -10.5 -27t-26.5 -11h-206v225h-188v-225h-206q-16 0 -27 11t-11 27v300h-75q-25 0 -35 24q-4 11 -1 22.5t13 19.5l412 338q11 8 24 8t24 -8l126 -104v58q0 19 19 19h112q19 0 19 -19v-180l136 -112v0z " />
<glyph unicode="&#xf016;" horiz-adv-x="600" d="M275 481q0 -23 16.5 -39.5t39.5 -16.5h269v-369q0 -23 -16.5 -39.5t-39.5 -16.5h-488q-23 0 -39.5 16.5t-16.5 39.5v638q0 23 16.5 39.5t39.5 16.5h219v-269v0zM597 481h-266v266h3l263 -263v-3z" />
<glyph unicode="&#xf017;" horiz-adv-x="780" d="M390 102q57 0 106.5 21.5t86.5 58.5t58.5 86.5t21.5 106.5t-21.5 106.5t-58.5 86.5t-86.5 58.5t-106.5 21.5t-106.5 -21.5t-86.5 -58.5t-58.5 -86.5t-21.5 -106.5t21.5 -106.5t58.5 -86.5t86.5 -58.5t106.5 -21.5zM390 765q81 0 152 -30.5t124 -83.5t83.5 -124t30.5 -152 t-30.5 -152t-83.5 -124t-124 -83.5t-152 -30.5t-152 30.5t-124 83.5t-83.5 124t-30.5 152t30.5 152t83.5 124t124 83.5t152 30.5zM525 375q16 0 27.5 -11.5t11.5 -27.5v-39q0 -16 -11.5 -27.5t-27.5 -11.5h-176q-16 0 -27.5 11.5t-11.5 27.5v227q0 16 11.5 27.5t27.5 11.5 h39q17 0 28 -11.5t11 -27.5v-149h98v0z" />
<glyph unicode="&#xf018;" d="M506 389l-10 202h-92l-10 -202h112zM899 17q3 -7 -0.5 -12t-11.5 -5h-361l-13 250h-126l-13 -250h-361q-8 0 -11.5 5t-0.5 12l290 716q3 7 10.5 12t15.5 5h95l-4 -83h84l-4 83h95q8 0 15.5 -5t10.5 -12z" />
<glyph unicode="&#xf019;" d="M177 442q-11 11 -8 19t19 8h150v244q0 15 10.5 26t26.5 11h150q16 0 27 -11t11 -26v-244h150q15 0 18 -8t-8 -19l-246 -247q-11 -11 -27 -11t-27 11zM881 338q8 0 13.5 -5.5t5.5 -13.5v-300q0 -19 -19 -19h-862q-19 0 -19 19v300q0 8 5.5 13.5t13.5 5.5h112 q8 0 13.5 -5.5t5.5 -13.5v-169h600v169q0 8 5.5 13.5t13.5 5.5h112v0z" />
<glyph unicode="&#xf01a;" horiz-adv-x="780" d="M390 102q57 0 106.5 21.5t86.5 58.5t58.5 86.5t21.5 106.5t-21.5 106.5t-58.5 86.5t-86.5 58.5t-106.5 21.5t-106.5 -21.5t-86.5 -58.5t-58.5 -86.5t-21.5 -106.5t21.5 -106.5t58.5 -86.5t86.5 -58.5t106.5 -21.5zM390 765q81 0 152 -30.5t124 -83.5t83.5 -124t30.5 -152 t-30.5 -152t-83.5 -124t-124 -83.5t-152 -30.5t-152 30.5t-124 83.5t-83.5 124t-30.5 152t30.5 152t83.5 124t124 83.5t152 30.5zM560 375q13 0 18 -12t-5 -21l-169 -169q-7 -5 -14 -5t-14 5l-169 169q-10 9 -5 21t18 12h102v175q0 8 5.5 14t13.5 6h98q8 0 13.5 -6t5.5 -14 v-175h102v0z" />
<glyph unicode="&#xf01b;" horiz-adv-x="780" d="M390 648q-57 0 -106.5 -21.5t-86.5 -58.5t-58.5 -86.5t-21.5 -106.5t21.5 -106.5t58.5 -86.5t86.5 -58.5t106.5 -21.5t106.5 21.5t86.5 58.5t58.5 86.5t21.5 106.5t-21.5 106.5t-58.5 86.5t-86.5 58.5t-106.5 21.5zM390 -15q-81 0 -152 30.5t-124 83.5t-83.5 124 t-30.5 152t30.5 152t83.5 124t124 83.5t152 30.5t152 -30.5t124 -83.5t83.5 -124t30.5 -152t-30.5 -152t-83.5 -124t-124 -83.5t-152 -30.5zM220 375q-13 0 -18 12t5 21l169 169q7 5 14 5t14 -5l169 -169q10 -9 5 -21t-18 -12h-102v-176q0 -8 -5.5 -13.5t-13.5 -5.5h-98 q-8 0 -13.5 5.5t-5.5 13.5v176h-102v0z" />
<glyph unicode="&#xf01c;" d="M118 347q-1 -1 -1 -3.5t-1 -4.5h189l56 -113h187l57 113h179q-1 2 -1 4.5t-1 4.5l-125 290h-414zM885 392q6 -14 10.5 -35t4.5 -37v-282q0 -16 -11 -27t-26 -11h-825q-16 0 -27 11t-11 27v282q0 16 4.5 37t10.5 35l139 324q6 14 21.5 24t30.5 10h488q15 0 30.5 -10 t21.5 -24l139 -324v0z" />
<glyph unicode="&#xf01d;" horiz-adv-x="780" d="M573 388q8 -3 8 -13t-8 -13l-266 -154q-4 -2 -7 -2q-4 0 -8 2q-8 5 -8 13v307q0 9 8 14q10 4 15 0zM390 102q57 0 106.5 21.5t86.5 58.5t58.5 86.5t21.5 106.5t-21.5 106.5t-58.5 86.5t-86.5 58.5t-106.5 21.5t-106.5 -21.5t-86.5 -58.5t-58.5 -86.5t-21.5 -106.5 t21.5 -106.5t58.5 -86.5t86.5 -58.5t106.5 -21.5zM390 765q81 0 152 -30.5t124 -83.5t83.5 -124t30.5 -152t-30.5 -152t-83.5 -124t-124 -83.5t-152 -30.5t-152 30.5t-124 83.5t-83.5 124t-30.5 152t30.5 152t83.5 124t124 83.5t152 30.5z" />
<glyph unicode="&#xf01e;" horiz-adv-x="777" d="M760 345q8 -2 13 -8t4 -14q-10 -72 -44 -134t-86 -107.5t-118 -71t-139 -25.5q-81 0 -152 30.5t-124 83.5t-83.5 124t-30.5 152t30.5 152t83.5 124t124 83.5t152 30.5q69 0 132.5 -23.5t116.5 -68.5l79 79q17 17 28.5 12t11.5 -28v-226q0 -16 -11 -27q-5 -5 -11.5 -8 t-14.5 -3h-226q-23 0 -28.5 11.5t11.5 28.5l78 78q-35 28 -77.5 43t-88.5 15q-57 0 -106.5 -21.5t-86.5 -58.5t-58.5 -86.5t-21.5 -106.5t21.5 -106.5t58.5 -86.5t86.5 -58.5t106.5 -21.5q51 0 97 18t82.5 49.5t60.5 75t31 93.5q0 8 7 13t15 4l77 -10v0z" />
<glyph unicode="&#xf021;" horiz-adv-x="936" d="M900 626q21 11 31 2.5t2 -30.5l-73 -214q-5 -16 -19 -22t-29 -2l-214 73q-22 8 -22.5 20t19.5 23l99 49q-25 38 -60 65.5t-78 42.5q-54 18 -108 13.5t-101 -27.5t-83 -63t-54 -94q-3 -8 -10 -11t-15 -1l-74 25q-8 3 -11.5 10t-0.5 15q26 76 78 133.5t119 90.5t144 39.5 t154 -19.5q65 -23 117.5 -65.5t88.5 -101.5l100 49v0zM825 274q8 -3 11.5 -10t0.5 -15q-26 -77 -78 -134t-119 -90t-144.5 -39.5t-153.5 19.5q-66 23 -118 65.5t-88 101.5l-100 -49q-21 -11 -31 -2.5t-2 31.5l73 213q5 16 19 22t29 2l214 -73q22 -8 22.5 -20t-20.5 -23 l-99 -49q26 -38 60.5 -65.5t78.5 -42.5q54 -18 108 -13.5t101 27.5t83 63t54 94q3 8 10 11t15 1l74 -25v0z" />
<glyph unicode="&#xf022;" d="M356 300q-8 0 -13 5.5t-5 13.5v37q0 8 5 13.5t13 5.5h375q19 0 19 -19v-37q0 -19 -19 -19h-375v0zM356 450q-8 0 -13 5.5t-5 13.5v37q0 8 5 13.5t13 5.5h375q19 0 19 -19v-37q0 -19 -19 -19h-375v0zM356 150q-8 0 -13 5.5t-5 13.5v37q0 8 5 13.5t13 5.5h375q19 0 19 -19 v-37q0 -19 -19 -19h-375v0zM169 450q-19 0 -19 19v37q0 19 19 19h75q8 0 13.5 -5.5t5.5 -13.5v-37q0 -8 -5.5 -13.5t-13.5 -5.5h-75v0zM169 150q-19 0 -19 19v37q0 19 19 19h75q8 0 13.5 -5.5t5.5 -13.5v-37q0 -8 -5.5 -13.5t-13.5 -5.5h-75v0zM169 300q-19 0 -19 19v37 q0 19 19 19h75q8 0 13.5 -5.5t5.5 -13.5v-37q0 -8 -5.5 -13.5t-13.5 -5.5h-75v0zM825 600h-750v-525h750v525zM844 750q23 0 39.5 -16.5t16.5 -39.5v-638q0 -23 -16.5 -39.5t-39.5 -16.5h-788q-23 0 -39.5 16.5t-16.5 39.5v638q0 23 16.5 39.5t39.5 16.5h788v0z" />
<glyph unicode="&#xf023;" horiz-adv-x="612" d="M459 497q0 32 -12 60t-33 48.5t-49 32.5t-59 12q-32 0 -59.5 -12t-48.5 -32.5t-33 -48.5t-12 -60v-76h306v76zM339 219q14 9 23 24t9 32q0 27 -19 46.5t-46 19.5t-46 -19.5t-19 -46.5q0 -17 9 -32t23 -23l-32 -140h130zM574 417q17 -6 27.5 -20.5t10.5 -33.5v-306 q0 -23 -17 -40t-40 -17h-498q-23 0 -40 17t-17 40v306q0 19 10.5 33.5t27.5 20.5v80q0 55 21 104t57.5 85.5t85.5 57.5t104 21t104 -21t85.5 -57.5t57.5 -85.5t21 -104v-80v0z" />
<glyph unicode="&#xf024;" d="M868 664q14 8 23 3t9 -21v-365q0 -15 -9 -31.5t-23 -24.5q-55 -33 -101 -42.5t-80 -7.5q-40 2 -71 16q-25 13 -48.5 25t-48.5 21t-52.5 14.5t-60.5 5.5q-27 -1 -61 -9q-29 -7 -70 -22t-92 -43q-14 -8 -23.5 -2t-9.5 22v364q0 16 9.5 32t23.5 24q51 27 92 42t70 22 q34 8 61 9q33 0 60.5 -5.5t52.5 -14.5t48.5 -21t48.5 -25q31 -14 71 -16q34 -2 80 7.5t101 42.5zM150 675q0 -20 -10 -36.5t-27 -27.5v-592q0 -8 -5.5 -13.5t-13.5 -5.5h-38q-8 0 -13 5.5t-5 13.5v592q-17 11 -27.5 27.5t-10.5 36.5q0 31 22 53t53 22t53 -22t22 -53z" />
<glyph unicode="&#xf025;" horiz-adv-x="936" d="M468 765q85 0 168.5 -32.5t150 -88t108 -130t41.5 -159.5q0 -89 -38 -171l-13 -29l-85 -13q-13 -51 -54 -84.5t-96 -33.5v-20q0 -8 -6 -13.5t-14 -5.5h-39q-8 0 -13.5 5.5t-5.5 13.5v351q0 8 5.5 14t13.5 6h39q8 0 14 -6t6 -14v-19q43 0 78.5 -21.5t55.5 -56.5l19 3 q16 44 16 94q0 61 -32 114t-83 93t-113.5 63t-122.5 23t-122.5 -23t-113.5 -62.5t-83 -93t-32 -113.5q0 -51 16 -95l19 -3q20 35 55.5 56.5t78.5 21.5v19q0 8 6 14t14 6h39q8 0 13.5 -6t5.5 -14v-351q0 -8 -5.5 -13.5t-13.5 -5.5h-39q-8 0 -14 5.5t-6 13.5v20q-27 0 -52 9 t-44.5 24.5t-33.5 37t-20 47.5l-85 13l-13 29q-38 82 -38 172q0 84 41.5 158.5t108 130t150 88t168.5 32.5z" />
<glyph unicode="&#xf026;" horiz-adv-x="442" d="M383 646q24 25 41 18t17 -42v-494q0 -35 -17 -42t-41 18l-159 159h-205q-8 0 -13.5 5.5t-5.5 13.5v186q0 8 5.5 13.5t13.5 5.5h205l159 159v0z" />
<glyph unicode="&#xf027;" horiz-adv-x="624" d="M520 575q14 8 29.5 4t23.5 -18q51 -89 51 -186q0 -98 -51 -186q-11 -20 -34 -20q-10 0 -19 6q-14 8 -18.5 23.5t3.5 29.5q41 71 41 147t-41 147q-8 14 -3.5 29.5t18.5 23.5zM383 646q24 25 41 18t17 -42v-494q0 -35 -17 -42t-41 18l-159 159h-205q-8 0 -13.5 5.5 t-5.5 13.5v186q0 8 5.5 13.5t13.5 5.5h205l159 159v0z" />
<glyph unicode="&#xf028;" horiz-adv-x="936" d="M520 575q14 8 29.5 4t23.5 -18q51 -89 51 -186q0 -98 -51 -186q-11 -20 -34 -20q-10 0 -19 6q-14 8 -18.5 23.5t3.5 29.5q41 71 41 147t-41 147q-8 14 -3.5 29.5t18.5 23.5zM699 655q40 -64 60.5 -134.5t20.5 -145.5q0 -151 -82 -280q-5 -9 -14 -13.5t-18 -4.5 q-12 0 -21 6q-14 8 -17.5 24t5.5 30q69 110 69 238t-69 238q-9 14 -5.5 30t17.5 24q14 9 29.5 5.5t24.5 -17.5zM823 748q56 -85 84.5 -179t28.5 -194t-28.5 -194t-84.5 -178q-5 -9 -14 -13.5t-18 -4.5q-12 0 -22 6q-14 9 -17 25t6 29q49 75 74.5 158.5t25.5 171.5 t-25.5 171.5t-74.5 157.5q-9 14 -6 30t17 25q14 8 29.5 5t24.5 -16zM383 646q24 25 41 18t17 -42v-494q0 -35 -17 -42t-41 18l-159 159h-205q-8 0 -13.5 5.5t-5.5 13.5v186q0 8 5.5 13.5t13.5 5.5h205l159 159v0z" />
<glyph unicode="&#xf029;" horiz-adv-x="750" d="M682 68h68v-68h-68v68zM545 68h68v-68h-68v68zM682 341h68v-205h-205v68h-68v-204h-68v341h204v-68h69v68zM613 545h-68v68h68v-68zM682 682h-205v-205h205v205zM750 750v-341h-341v341h341zM136 205h69v-69h-69v69zM68 68h205v205h-205v-205zM0 341h341v-341h-341v341z M136 613h69v-68h-69v68zM68 477h205v205h-205v-205zM0 750h341v-341h-341v341z" />
<glyph unicode="&#xf02a;" d="M75 0h-75v750h75v-750zM129 0h-18v750h18v-750zM231 0h-57v750h57v-750zM900 0h-75v750h75v-750zM789 0h-18v750h18v-750zM707 0h-19v750h19v-750zM634 0h-38v750h38v-750zM570 0h-75v750h75v-750zM459 0h-18v750h18v-750zM386 0h-37v750h37v-750zM304 0h-38v750h38v-750 z" />
<glyph unicode="&#xf02b;" horiz-adv-x="727" d="M153 540q24 0 40.5 16.5t16.5 40.5t-16.5 40.5t-40.5 16.5t-40.5 -16.5t-16.5 -40.5t16.5 -40.5t40.5 -16.5zM710 343q16 -19 16.5 -43t-16.5 -41l-257 -257q-17 -17 -42 -17.5t-42 17.5l-327 366q-17 18 -29.5 47t-12.5 54v222q0 24 17 41.5t42 17.5h222q25 0 55 -12 t46 -30l328 -365v0z" />
<glyph unicode="&#xf02c;" horiz-adv-x="916" d="M153 540q23 0 40 17t17 40q0 24 -17 41t-40 17q-24 0 -41 -17t-17 -41q0 -23 17 -40t41 -17zM709 343q16 -18 16.5 -42t-16.5 -41l-257 -256q-17 -17 -42 -18t-41 18l-327 364q-17 19 -29.5 48t-12.5 53v222q0 24 17 41.5t42 17.5h222q12 0 26 -3t28 -9t26.5 -13.5 t20.5 -16.5l327 -365v0zM899 342q17 -18 17 -42.5t-17 -41.5l-256 -256q-17 -17 -42 -17.5t-42 17.5l-6 7l251 251q17 17 17 41t-17 42l-327 365q-15 17 -41 27.5t-50 13.5h85q25 0 55 -12t46 -30l327 -365v0z" />
<glyph unicode="&#xf02d;" horiz-adv-x="835" d="M244 469q-5 -19 13 -19h300q8 0 15 5.5t9 13.5l12 37q2 8 -1.5 13.5t-11.5 5.5h-300q-8 0 -15.5 -5.5t-9.5 -13.5zM278 581q-2 -8 1.5 -13t11.5 -5h300q8 0 15 5t10 13l11 38q2 8 -1.5 13.5t-11.5 5.5h-300q-8 0 -15 -5.5t-10 -13.5zM822 579q20 -26 9 -63l-138 -442 q-9 -32 -38 -53t-62 -21h-462q-20 0 -39 7t-36 19t-30 28.5t-20 35.5q-12 33 -1 62q1 8 2 15.5t2 16.5q0 5 -2 10t-1 10q1 8 7.5 15.5t12.5 17.5q11 18 22 44t16 45q2 8 -0.5 15t-0.5 13q2 8 8 13.5t10 11.5q5 9 10.5 20.5t10.5 24t8 24.5t4 20t-1 16t0 14q3 8 10 13t12 12 q5 6 10.5 17t11 24t9.5 25.5t5 22.5q1 6 -2 12t-1 13t9 14.5t13 15.5q8 12 14 28.5t14.5 30t22.5 21t38 0.5l-1 -2q15 5 26 5h381q38 0 58 -28q20 -26 9 -63l-138 -442q-9 -31 -38 -52.5t-62 -21.5h-436q-5 0 -10 -1t-9 -6q-6 -10 0 -27q8 -21 29.5 -37t42.5 -16h462 q14 0 28 10.5t18 23.5l151 482q2 8 2.5 14.5t-0.5 13.5q20 -7 30 -21z" />
<glyph unicode="&#xf02e;" horiz-adv-x="612" d="M56 -15q-23 0 -39.5 16.5t-16.5 39.5v653q0 23 16.5 39.5t39.5 16.5h500q23 0 39.5 -16.5t16.5 -39.5v-653q0 -23 -16.5 -39.5t-39.5 -16.5t-39 16l-211 211l-211 -211q-16 -16 -39 -16z" />
<glyph unicode="&#xf02f;" d="M769 113q0 8 -5.5 13.5t-13.5 5.5h-600q-8 0 -13.5 -5.5t-5.5 -13.5v-19q0 -8 5.5 -13t13.5 -5h600q8 0 13.5 5t5.5 13v19zM788 300q23 0 43.5 -9t35.5 -24t24 -35.5t9 -43.5v-169q0 -19 -19 -19h-862q-19 0 -19 19v169q0 23 9 43.5t24.5 35.5t36 24t43.5 9h675v0z M750 356h-600v357q0 15 11 26t27 11h318v-187q0 -24 16.5 -40.5t39.5 -16.5h188v-150zM750 563h-188v187z" />
<glyph unicode="&#xf030;" d="M450 84q48 0 91 18.5t74.5 50.5t50 74.5t18.5 91.5q0 48 -18.5 91t-50 74.5t-74.5 50t-91 18.5t-91 -18.5t-74.5 -50t-50 -74.5t-18.5 -91q0 -49 18.5 -91.5t50 -74.5t74.5 -50.5t91 -18.5zM844 638q23 0 39.5 -17t16.5 -40v-525q0 -23 -16.5 -39.5t-39.5 -16.5h-788 q-23 0 -39.5 16.5t-16.5 39.5v525q0 23 16.5 40t39.5 17h179l28 61q9 21 32.5 36t46.5 15h216q23 0 46.5 -15t32.5 -36l28 -61h179v0zM450 478q33 0 62 -12.5t50.5 -34t34 -50.5t12.5 -62t-12.5 -62t-34 -51t-50.5 -34.5t-62 -12.5t-62 12.5t-50.5 34.5t-34 51t-12.5 62 t12.5 62t34 50.5t50.5 34t62 12.5z" />
<glyph unicode="&#xf031;" horiz-adv-x="803" d="M0 0l1 39q5 2 14.5 4t23.5 4q45 9 53 16q8 5 24 33l114 300l135 354h36h26l5 -10l99 -235q16 -38 31 -74t29 -71t25.5 -63.5t20.5 -50.5q6 -14 14 -34t18 -46q11 -32 31 -73q12 -24 17 -28q10 -9 33 -12q12 -1 24 -4.5t26 -8.5q3 -18 3 -27v-5t-1 -8q-21 0 -44 1t-48 3 q-26 2 -48.5 3t-42.5 1h-39t-26 -1l-97 -5l-28 -1q0 10 0.5 19.5t1.5 18.5l63 13q28 7 33 12q6 4 6 13q0 7 -3 15l-23 56l-44 111l-218 1q-6 -14 -18 -47t-32 -87q-11 -31 -11 -41q0 -13 8 -21q7 -5 19.5 -8.5t30.5 -6.5q7 -2 41 -6v-29q0 -8 -1 -13q-17 0 -59 2.5t-109 7.5 l-24 -4q-21 -4 -40.5 -5.5t-39.5 -1.5h-10zM268 320q66 -1 105.5 -2t51.5 0l14 1q-9 25 -20 54.5t-25 63.5t-25 59.5t-19 42.5z" />
<glyph unicode="&#xf032;" horiz-adv-x="693" d="M0 0l1 46q13 3 33 6q19 3 34 6.5t27 8.5q4 7 6.5 13t3.5 12q3 16 4 39.5t1 54.5l-1 243q-1 19 -1.5 68t-2.5 130q-2 43 -6 53q-2 4 -6 5q-10 7 -34 8q-11 0 -56 6l-2 41l128 3l187 6h22q4 1 7.5 1h6.5t10.5 -0.5t19.5 -0.5h37q45 0 94 -13q9 -2 21 -6.5t26 -12.5 q31 -15 51 -37q22 -23 32 -51q5 -14 7.5 -28.5t2.5 -30.5q0 -35 -16 -63q-15 -28 -46 -51q-8 -6 -26.5 -15t-47.5 -23q87 -20 131 -71q45 -51 45 -115q0 -35 -14 -79q-11 -32 -35 -57q-32 -35 -69 -53q-38 -17 -100 -29q-34 -6 -97 -5l-97 2q-31 1 -67.5 -1t-79.5 -5 q-12 -1 -45.5 -2t-88.5 -3zM266 434q12 -2 25.5 -3t28.5 -1q86 0 130 32t44 110q0 55 -42 91q-41 37 -126 37q-26 0 -64 -7q0 -6 0.5 -15.5t1.5 -21.5q1 -25 2 -58.5t0 -77.5v-48v-38zM273 70q36 -16 69 -16q64 0 107 20q40 19 60 55q9 18 14 40t5 49q0 55 -21 88 q-29 46 -69 61q-39 16 -122 16q-18 0 -30 -1.5t-20 -3.5v-70v-85l2 -132q0 -8 5 -21z" />
<glyph unicode="&#xf033;" horiz-adv-x="515" d="M0 0l9 41q6 2 15.5 4.5t22.5 5.5q20 5 34.5 9.5t24.5 9.5q14 19 20 50l14 67l28 131l6 31q11 58 20 87t9 31l15 76l8 31l11 66l4 24v19q-22 11 -72 14q-7 0 -11.5 0.5t-8.5 0.5l10 51l159 -7q15 -1 24 -1h13q17 0 43.5 1t64.5 3q20 2 33.5 3t18.5 1q-1 -5 -1.5 -9.5 t-1.5 -9.5q-2 -5 -3.5 -11l-3.5 -14q-24 -8 -54 -15q-32 -8 -51 -15q-6 -16 -12 -43q-3 -12 -4.5 -22t-2.5 -18q-11 -49 -19.5 -86t-13.5 -63l-31 -152l-19 -77l-21 -115l-7 -22v-5t1 -8q17 -4 31.5 -6.5t28.5 -4.5q2 0 10.5 -1t22.5 -3q-1 -9 -1.5 -16t-1.5 -13 q-1 -3 -2 -8t-3 -11q-4 0 -7 -0.5t-5 -0.5q-9 -1 -14 -1h-7h-5.5t-8.5 2q-4 0 -22 2t-51 6l-99 1q-30 0 -88 -6q-19 -2 -31 -3t-18 -1z" />
<glyph unicode="&#xf034;" d="M883 119q14 0 16.5 -6.5t-6.5 -15.5l-90 -91q-8 -6 -16 -6t-15 6l-90 91q-9 9 -6.5 15.5t15.5 6.5h59v512h-59q-13 0 -15.5 6.5t6.5 16.5l90 90q7 6 16 6q7 0 15 -6l90 -90q9 -10 6.5 -16.5t-16.5 -6.5h-58v-512h58zM617 749q1 -19 0.5 -47.5t0.5 -67.5v-49v-28 q0 -7 -0.5 -13.5t-1.5 -11.5q-10 -4 -18 -5.5t-15 -3.5q-13 25 -26 63q-14 40 -18 45q-6 7 -13 10q-5 2 -29.5 2h-67.5h-15t-17 -2q-3 -21 -3 -35l1 -74v-163l1 -175v-72q0 -35 5 -57q4 -2 10.5 -4t16.5 -4q2 0 10.5 -2t24.5 -6q13 -5 24 -9q2 -10 2 -16.5v-8.5v-5.5 t-1 -8.5h-17q-23 0 -43 1t-37 3t-46.5 3t-72.5 1q-8 0 -28 -2t-53 -5q-14 -1 -22 -1.5t-12 -0.5q0 5 -0.5 8t-0.5 5l-1 12v5q9 15 39 24q46 13 66 24q2 5 3 12.5t2 15.5q2 33 3 86t0 125l-2 209q-1 44 -1 69.5t-2 35.5q0 4 -3 7q-2 3 -6 3q-8 2 -31 2h-62q-44 0 -58 -10 q-20 -14 -59 -75q-11 -17 -17 -17q-11 6 -17.5 11.5t-9.5 9.5q7 18 17 54t22 90q4 16 6.5 26.5t4.5 15.5h28q2 -3 3 -5l2 -4q14 -28 20 -35q8 -2 63 -2q17 0 32.5 0.5t29.5 0.5l10 1l55 1l104 -1h141l27 5q5 4 13 26l2 6t3 8l21 1h5t8 -1z" />
<glyph unicode="&#xf035;" horiz-adv-x="750" d="M42 599q-10 -14 -16 -14q-11 5 -17 9.5t-9 7.5q7 14 16.5 42.5t21.5 71.5q3 13 5.5 21t4.5 13h27q4 -6 5 -7q13 -23 18 -28q1 0 17.5 -0.5t38 -0.5h44h36.5h60l9 1h53h99h203l26 3q6 5 12 22q1 2 2 4.5t3 6.5h19h14v-92v-39v-22q0 -6 -0.5 -10.5t-1.5 -9.5q-16 -5 -31 -7 q-12 18 -25 50q-13 29 -17 36q-6 5 -13 7q-3 1 -20.5 1.5t-41.5 0.5h-50.5h-47.5h-14t-17 -1q-1 -9 -1.5 -16t-0.5 -12l2 -217l-1 -58q0 -30 6 -45q6 -3 26 -6q2 0 10 -2t22 -5q7 -2 13 -3.5t11 -3.5q1 -8 1.5 -12.5t0.5 -6.5t-0.5 -5t-0.5 -7h-16q-46 0 -77 3q-32 3 -115 3 q-7 0 -26 -1.5t-51 -3.5q-13 -1 -21 -1.5t-12 -0.5q0 8 -1 10v10v4q10 13 36 19q44 10 64 20q2 4 3 9.5t2 12.5q0 9 0.5 34.5t0.5 58.5t-0.5 69.5t-1 68t-1 52.5t-0.5 23q0 4 -3 6q-1 1 -6 3q-7 1 -29 1h-60q-10 0 -30.5 -0.5t-41.5 -1t-38 -2t-20 -3.5q-20 -12 -57 -60z M744 129q6 -6 6 -15t-6 -15l-90 -91q-10 -9 -16.5 -6.5t-6.5 16.5v58h-512v-58q0 -14 -6.5 -16.5t-15.5 6.5l-91 91q-6 6 -6 15t6 15l91 90q9 10 15.5 7t6.5 -16v-59h512v59q0 13 6.5 16t16.5 -7l90 -90v0z" />
<glyph unicode="&#xf036;" d="M0 506q0 16 11 27t27 11h750q15 0 26 -11t11 -27v-56q0 -16 -11 -26.5t-26 -10.5h-750q-16 0 -27 10.5t-11 26.5v56zM488 750q15 0 26 -11t11 -26v-57q0 -15 -11 -26t-26 -11h-450q-16 0 -27 11t-11 26v57q0 15 11 26t27 11h450zM0 300q0 16 11 27t27 11h525q15 0 26 -11 t11 -27v-56q0 -16 -11 -27t-26 -11h-525q-16 0 -27 11t-11 27v56zM0 94q0 15 11 26t27 11h825q15 0 26 -11t11 -26v-56q0 -16 -11 -27t-26 -11h-825q-16 0 -27 11t-11 27v56z" />
<glyph unicode="&#xf037;" d="M38 506q0 16 10.5 27t26.5 11h750q16 0 27 -11t11 -27v-56q0 -16 -11 -26.5t-27 -10.5h-750q-16 0 -26.5 10.5t-10.5 26.5v56zM675 750q16 0 27 -11t11 -26v-57q0 -15 -11 -26t-27 -11h-450q-16 0 -26.5 11t-10.5 26v57q0 15 10.5 26t26.5 11h450zM150 300q0 16 11 27 t27 11h525q15 0 26 -11t11 -27v-56q0 -16 -11 -27t-26 -11h-525q-16 0 -27 11t-11 27v56zM0 94q0 15 11 26t27 11h825q15 0 26 -11t11 -26v-56q0 -16 -11 -27t-26 -11h-825q-16 0 -27 11t-11 27v56z" />
<glyph unicode="&#xf038;" d="M75 506q0 16 11 27t27 11h750q15 0 26 -11t11 -27v-56q0 -16 -11 -26.5t-26 -10.5h-750q-16 0 -27 10.5t-11 26.5v56zM863 750q15 0 26 -11t11 -26v-57q0 -15 -11 -26t-26 -11h-450q-16 0 -27 11t-11 26v57q0 15 11 26t27 11h450zM300 300q0 16 11 27t27 11h525 q15 0 26 -11t11 -27v-56q0 -16 -11 -27t-26 -11h-525q-16 0 -27 11t-11 27v56zM0 94q0 15 11 26t27 11h825q15 0 26 -11t11 -26v-56q0 -16 -11 -27t-26 -11h-825q-16 0 -27 11t-11 27v56z" />
<glyph unicode="&#xf039;" d="M0 506q0 16 11 27t27 11h825q15 0 26 -11t11 -27v-56q0 -16 -11 -26.5t-26 -10.5h-825q-16 0 -27 10.5t-11 26.5v56zM863 750q15 0 26 -11t11 -26v-57q0 -15 -11 -26t-26 -11h-825q-16 0 -27 11t-11 26v57q0 15 11 26t27 11h825zM0 300q0 16 11 27t27 11h825q15 0 26 -11 t11 -27v-56q0 -16 -11 -27t-26 -11h-825q-16 0 -27 11t-11 27v56zM0 94q0 15 11 26t27 11h825q15 0 26 -11t11 -26v-56q0 -16 -11 -27t-26 -11h-825q-16 0 -27 11t-11 27v56z" />
<glyph unicode="&#xf03a;" d="M225 94q0 15 11 26t27 11h600q15 0 26 -11t11 -26v-56q0 -16 -11 -27t-26 -11h-600q-16 0 -27 11t-11 27v56zM225 300q0 16 11 27t27 11h600q15 0 26 -11t11 -27v-56q0 -16 -11 -27t-26 -11h-600q-16 0 -27 11t-11 27v56zM863 750q15 0 26 -11t11 -26v-57q0 -15 -11 -26 t-26 -11h-600q-16 0 -27 11t-11 26v57q0 15 11 26t27 11h600zM225 506q0 16 11 27t27 11h600q15 0 26 -11t11 -27v-56q0 -16 -11 -26.5t-26 -10.5h-600q-16 0 -27 10.5t-11 26.5v56zM150 656q0 -15 -11 -26t-26 -11h-75q-16 0 -27 11t-11 26v57q0 15 11 26t27 11h75 q15 0 26 -11t11 -26v-57zM150 450q0 -16 -11 -26.5t-26 -10.5h-75q-16 0 -27 10.5t-11 26.5v56q0 16 11 27t27 11h75q15 0 26 -11t11 -27v-56zM150 244q0 -16 -11 -27t-26 -11h-75q-16 0 -27 11t-11 27v56q0 16 11 27t27 11h75q15 0 26 -11t11 -27v-56zM113 131q15 0 26 -11 t11 -26v-56q0 -16 -11 -27t-26 -11h-75q-16 0 -27 11t-11 27v56q0 15 11 26t27 11h75z" />
<glyph unicode="&#xf03b;" d="M255 405q8 -8 8 -18q0 -9 -8 -17l-105 -105q-11 -11 -19 -8t-8 19v74h-104q-19 0 -19 19v37q0 19 19 19h104v75q0 15 8 18t19 -8zM356 750q19 0 19 -19v-712q0 -19 -19 -19h-37q-19 0 -19 19v712q0 19 19 19h37v0zM488 413q-16 0 -27 10.5t-11 26.5v56q0 16 11 27t27 11 h337q16 0 27 -11t11 -27v-56q0 -16 -11 -26.5t-27 -10.5h-337v0zM488 619q-16 0 -27 11t-11 26v57q0 15 11 26t27 11h262q16 0 27 -11t11 -26v-57q0 -15 -11 -26t-27 -11h-262v0zM488 206q-16 0 -27 11t-11 27v56q0 16 11 27t27 11h300q15 0 26 -11t11 -27v-56 q0 -16 -11 -27t-26 -11h-300v0zM863 131q15 0 26 -11t11 -26v-56q0 -16 -11 -27t-26 -11h-375q-16 0 -27 11t-11 27v56q0 15 11 26t27 11h375v0z" />
<glyph unicode="&#xf03c;" d="M881 400q8 0 13.5 -5.5t5.5 -13.5v-37q0 -8 -5.5 -13.5t-13.5 -5.5h-105v-75q0 -15 -7.5 -18.5t-18.5 7.5l-106 106q-7 9 -7 18q0 8 7 17l106 105q11 11 18.5 8t7.5 -19v-74h105v0zM581 750q8 0 13.5 -5.5t5.5 -13.5v-712q0 -8 -5.5 -13.5t-13.5 -5.5h-37q-19 0 -19 19 v712q0 19 19 19h37v0zM37 413q-15 0 -26 10.5t-11 26.5v56q0 16 11 27t26 11h338q15 0 26 -11t11 -27v-56q0 -16 -11 -26.5t-26 -10.5h-338v0zM37 619q-15 0 -26 11t-11 26v57q0 15 11 26t26 11h263q15 0 26 -11t11 -26v-57q0 -15 -11 -26t-26 -11h-263v0zM37 206 q-15 0 -26 11t-11 27v56q0 16 11 27t26 11h300q16 0 27 -11t11 -27v-56q0 -16 -11 -27t-27 -11h-300v0zM412 131q16 0 27 -11t11 -26v-56q0 -16 -11 -27t-27 -11h-375q-15 0 -26 11t-11 27v56q0 15 11 26t26 11h375v0z" />
<glyph unicode="&#xf03d;" horiz-adv-x="936" d="M897 765q16 0 27.5 -11.5t11.5 -27.5v-702q0 -16 -11.5 -27.5t-27.5 -11.5q-19 0 -30 14l-243 292v-130q0 -24 -9.5 -45.5t-25 -37.5t-37 -25t-45.5 -9h-390q-24 0 -45.5 9t-37 25t-25 37.5t-9.5 45.5v429q0 24 9.5 45.5t25 37t37 25t45.5 9.5h390q24 0 45.5 -9.5t37 -25 t25 -37t9.5 -45.5v-131l243 292q11 14 30 14z" />
<glyph unicode="&#xf03e;" d="M226 449q-32 0 -54 22t-22 53q0 32 22 54t54 22q31 0 53 -22t22 -54q0 -31 -22 -53t-53 -22zM750 150h-600v51l135 176l92 -76l173 262l200 -207v-206zM825 675h-750v-600h750v600zM844 750q23 0 39.5 -16.5t16.5 -39.5v-638q0 -23 -16.5 -39.5t-39.5 -16.5h-788 q-23 0 -39.5 16.5t-16.5 39.5v638q0 23 16.5 39.5t39.5 16.5h788v0z" />
<glyph unicode="&#xf040;" horiz-adv-x="750" d="M733 678q17 -17 17 -41t-17 -41l-58 -58l-137 137l58 58q17 17 41 17t41 -17l28 -27l27 -28v0zM503 525q10 10 0 21q-5 5 -11 5t-10 -5l-337 -336q-5 -5 -5 -11t5 -11q4 -4 11 -4q6 0 10 4zM627 490l-423 -423l-204 -67l67 204l423 423z" />
<glyph unicode="&#xf041;" horiz-adv-x="551" d="M276 353q28 0 53 10.5t43.5 29t29 43.5t10.5 53t-10.5 53t-29 44t-43.5 29.5t-53 10.5q-29 0 -53.5 -10.5t-43.5 -29.5t-29.5 -44t-10.5 -53t10.5 -53t29.5 -43.5t43.5 -29t53.5 -10.5zM551 489q0 -41 -12 -78t-32 -70l-185 -323q-20 -33 -46.5 -33t-45.5 33l-186 324 q-20 33 -32 69.5t-12 77.5q0 57 21.5 107.5t59 88t88 59t107.5 21.5t107 -21.5t87.5 -59t59 -88t21.5 -107.5z" />
<glyph unicode="&#xf042;" horiz-adv-x="780" d="M117 375q0 -57 21.5 -106.5t58.5 -86.5t86.5 -58.5t106.5 -21.5v546q-57 0 -106.5 -21.5t-86.5 -58.5t-58.5 -86.5t-21.5 -106.5zM390 765q81 0 152 -30.5t124 -83.5t83.5 -124t30.5 -152t-30.5 -152t-83.5 -124t-124 -83.5t-152 -30.5t-152 30.5t-124 83.5t-83.5 124 t-30.5 152t30.5 152t83.5 124t124 83.5t152 30.5z" />
<glyph unicode="&#xf043;" horiz-adv-x="552" d="M190 131q29 0 49 20t20 49q0 21 -11 37l-9 12t-13 19t-14 23.5t-11 26.5q-2 10 -11 8q-9 2 -12 -8q-4 -14 -10.5 -26.5t-13.5 -23.5t-13 -19l-9 -12q-11 -16 -11 -37q0 -29 20 -49t49 -20zM508 409q21 -32 32.5 -69t11.5 -79q0 -57 -21.5 -107.5t-59 -88t-88 -59 t-107.5 -21.5t-107.5 21.5t-88 59t-59 88t-21.5 107.5q0 42 11.5 79t32.5 69q10 16 34 48.5t52.5 75.5t55.5 94.5t44 106.5q5 17 18 25t28 6q15 2 28 -6t18 -25q16 -55 43.5 -106.5t56 -94.5t52.5 -75.5t34 -48.5z" />
<glyph unicode="&#xf044;" d="M731 367l94 94v-311q0 -31 -12 -58t-32.5 -47.5t-47.5 -32.5t-58 -12h-525q-31 0 -58.5 12t-47.5 32.5t-32 47.5t-12 58v450q0 31 12 58.5t32 47.5t47.5 32t58.5 12h525q2 0 5 -0.5t5 -0.5l-93 -93h-442q-23 0 -39.5 -16.5t-16.5 -39.5v-450q0 -23 16.5 -39.5t39.5 -16.5 h525q23 0 39.5 16.5t16.5 39.5v217zM887 693q13 -14 13.5 -32.5t-13.5 -32.5l-46 -45l-108 108l45 46q14 14 33 14t32 -14l22 -22l22 -22v0zM689 556q9 9 0 17t-17 0l-249 -249q-9 -9 0 -17q3 -4 8 -4t8 4zM787 529l-318 -318l-161 -53l53 161l318 318z" />
<glyph unicode="&#xf045;" d="M887 544q13 -12 13 -32q0 -19 -13 -31l-191 -191q-20 -20 -34 -14t-14 34v127q-101 0 -178 -21t-130 -57t-83 -85t-38 -105q-2 -13 -15 -13q-12 0 -14 13q-2 11 -2 20.5v18.5q0 81 27.5 152.5t84.5 125t143.5 84.5t204.5 32v113q0 28 14 34t34 -14l191 -191v0zM731 204 q8 5 15.5 10.5t15.5 13.5l63 62v-140q0 -31 -12 -58t-32.5 -47.5t-47.5 -32.5t-58 -12h-525q-31 0 -58.5 12t-47.5 32.5t-32 47.5t-12 58v450q0 31 12 58.5t32 47.5t47.5 32t58.5 12h408q-3 -15 -3 -31v-25q-80 -10 -151 -38h-254q-23 0 -39.5 -16.5t-16.5 -39.5v-450 q0 -23 16.5 -39.5t39.5 -16.5h525q23 0 39.5 16.5t16.5 39.5v54v0z" />
<glyph unicode="&#xf046;" d="M889 653q11 -11 11 -27t-11 -27l-347 -347l-48 -48q-11 -11 -27 -11t-27 11l-49 48l-192 193q-11 11 -11 27t11 27l48 48q11 11 27 11t27 -11l166 -166l319 320q11 11 27.5 11t27.5 -11l48 -48v0zM731 309l94 94v-253q0 -31 -12 -58t-32.5 -47.5t-47.5 -32.5t-58 -12 h-525q-31 0 -58.5 12t-47.5 32.5t-32 47.5t-12 58v450q0 31 12 58.5t32 47.5t47.5 32t58.5 12h525q13 0 25 -3l-91 -91h-459q-23 0 -39.5 -16.5t-16.5 -39.5v-450q0 -23 16.5 -39.5t39.5 -16.5h525q23 0 39.5 16.5t16.5 39.5v159z" />
<glyph unicode="&#xf047;" horiz-adv-x="780" d="M771 396q9 -9 9 -21t-9 -21l-125 -125q-13 -13 -22 -9.5t-9 22.5v86h-176v-178h84q19 0 23 -9t-10 -22l-125 -125q-9 -9 -21 -9t-21 9l-125 125q-13 13 -9.5 22t22.5 9h84v178h-176v-86q0 -19 -9 -22.5t-22 9.5l-125 125q-9 9 -9 21t9 21l125 125q13 13 22 9.5t9 -22.5 v-83h176v175h-84q-18 0 -22 9t9 22l125 125q9 9 21 9t21 -9l125 -125q13 -13 9.5 -22t-22.5 -9h-84v-175h176v83q0 19 9 22.5t22 -9.5l125 -125v0z" />
<glyph unicode="&#xf048;" horiz-adv-x="525" d="M0 37q0 -15 11 -26t26 -11h75q16 0 27 11t11 26v675q0 16 -11 27t-27 11h-75q-15 0 -26 -11t-11 -27v-675zM158 353q-8 9 -8 22t8 21l319 345q7 9 20 9q3 0 11 -2q17 -9 17 -29v-689q0 -20 -17 -28q-19 -7 -31 7l-319 344v0z" />
<glyph unicode="&#xf049;" d="M0 37q0 -15 11 -26t26 -11h75q16 0 27 11t11 26v675q0 16 -11 27t-27 11h-75q-15 0 -26 -11t-11 -27v-675zM158 353q-8 9 -8 22t8 21l319 345q7 9 20 9q3 0 11 -2q17 -9 17 -29v-689q0 -20 -17 -28q-19 -7 -31 7l-319 344v0zM533 353q-8 9 -8 22t8 21l319 345q7 9 20 9 q3 0 11 -2q17 -9 17 -29v-689q0 -20 -17 -28q-19 -7 -31 7l-319 344v0z" />
<glyph unicode="&#xf04a;" horiz-adv-x="750" d="M8 353q-8 9 -8 21.5t8 21.5l319 345q7 9 20 9q5 0 11 -3q17 -7 17 -28v-689q0 -20 -17 -28q-18 -8 -31 7l-319 344v0zM383 353q-8 9 -8 21.5t8 21.5l319 345q7 9 20 9q5 0 11 -3q17 -7 17 -28v-689q0 -20 -17 -28q-18 -8 -31 7l-319 344v0z" />
<glyph unicode="&#xf04b;" horiz-adv-x="659" d="M642 405q17 -12 17 -30t-17 -30l-591 -340q-8 -5 -17 -5t-17 5q-17 10 -17 29v682q0 19 17 29q18 11 34 0l591 -340v0z" />
<glyph unicode="&#xf04c;" horiz-adv-x="750" d="M716 750q14 0 24 -10t10 -24v-682q0 -14 -10 -24t-24 -10h-239q-14 0 -24 10t-10 24v682q0 14 10 24t24 10h239v0zM273 750q14 0 24 -10t10 -24v-682q0 -14 -10 -24t-24 -10h-239q-14 0 -24 10t-10 24v682q0 14 10 24t24 10h239v0z" />
<glyph unicode="&#xf04d;" horiz-adv-x="750" d="M716 750q14 0 24 -10t10 -24v-682q0 -14 -10 -24t-24 -10h-682q-14 0 -24 10t-10 24v682q0 14 10 24t24 10h682v0z" />
<glyph unicode="&#xf04e;" horiz-adv-x="750" d="M742 397q8 -9 8 -22t-8 -22l-319 -344q-8 -9 -20 -9q-3 0 -11 2q-17 8 -17 28v690q0 19 17 28q19 7 31 -7l319 -344v0zM367 397q8 -9 8 -22t-8 -22l-319 -344q-8 -9 -20 -9q-3 0 -11 2q-17 8 -17 28v690q0 19 17 28q19 7 31 -7l319 -344v0z" />
<glyph unicode="&#xf050;" d="M900 712q0 16 -11 27t-27 11h-75q-15 0 -26 -11t-11 -27v-675q0 -15 11 -26t26 -11h75q16 0 27 11t11 26v675zM742 397q8 -9 8 -22t-8 -22l-319 -344q-8 -9 -20 -9q-3 0 -11 2q-17 8 -17 28v690q0 19 17 28q19 7 31 -7l319 -344v0zM367 397q8 -9 8 -22t-8 -22l-319 -344 q-8 -9 -20 -9q-3 0 -11 2q-17 8 -17 28v690q0 19 17 28q19 7 31 -7l319 -344v0z" />
<glyph unicode="&#xf051;" horiz-adv-x="525" d="M525 712q0 16 -11 27t-27 11h-75q-15 0 -26 -11t-11 -27v-675q0 -15 11 -26t26 -11h75q16 0 27 11t11 26v675zM367 397q8 -9 8 -22t-8 -22l-319 -344q-8 -9 -20 -9q-3 0 -11 2q-17 8 -17 28v690q0 19 17 28q19 7 31 -7l319 -344v0z" />
<glyph unicode="&#xf052;" horiz-adv-x="750" d="M716 165q14 0 24 -10t10 -24v-97q0 -14 -10 -24t-24 -10h-682q-14 0 -24 10t-10 24v97q0 14 10 24t24 10h682v0zM34 269q-23 0 -31 21q-9 21 7 37l341 341q10 10 24 10t24 -10l341 -341q16 -16 7 -37q-8 -21 -31 -21h-682v0z" />
<glyph unicode="&#xf053;" horiz-adv-x="471" d="M14 341q-14 14 -14 32.5t14 32.5l328 329q14 14 33 14t33 -14l49 -49q14 -14 14 -33t-14 -33l-248 -249l248 -244q14 -14 14 -32.5t-14 -32.5l-49 -50q-14 -14 -33 -14t-33 14l-328 329v0z" />
<glyph unicode="&#xf054;" horiz-adv-x="471" d="M457 407q14 -14 14 -33t-14 -33l-328 -328q-14 -14 -33 -14t-33 14l-49 49q-14 14 -14 33t14 33l248 248l-248 245q-14 14 -14 32.5t14 32.5l49 50q14 14 33 14t33 -14l328 -329v0z" />
<glyph unicode="&#xf055;" horiz-adv-x="780" d="M615 413q0 7 -5 11.5t-11 4.5h-153v169q0 16 -16 16h-80q-16 0 -16 -16v-169h-153q-16 0 -16 -16v-77q0 -16 16 -16h153v-168q0 -16 16 -16h80q16 0 16 16v168h153q6 0 11 4.5t5 11.5v77zM390 765q81 0 152 -30.5t124 -83.5t83.5 -124t30.5 -152t-30.5 -152t-83.5 -124 t-124 -83.5t-152 -30.5t-152 30.5t-124 83.5t-83.5 124t-30.5 152t30.5 152t83.5 124t124 83.5t152 30.5z" />
<glyph unicode="&#xf056;" horiz-adv-x="780" d="M615 413q0 7 -5 11.5t-11 4.5h-418q-16 0 -16 -16v-77q0 -16 16 -16h418q6 0 11 4.5t5 11.5v77zM390 765q81 0 152 -30.5t124 -83.5t83.5 -124t30.5 -152t-30.5 -152t-83.5 -124t-124 -83.5t-152 -30.5t-152 30.5t-124 83.5t-83.5 124t-30.5 152t30.5 152t83.5 124 t124 83.5t152 30.5z" />
<glyph unicode="&#xf057;" horiz-adv-x="780" d="M588 494q11 11 0 23l-57 56q-12 12 -23 0l-119 -119l-108 108q-5 5 -11.5 5t-11.5 -5l-54 -55q-12 -11 0 -23l107 -107l-118 -119q-5 -5 -5 -11.5t5 -11.5l56 -57q5 -5 11.5 -5t11.5 5l119 119l107 -108q5 -5 11.5 -5t11.5 5l55 55q11 11 0 23l-108 107l120 120v0z M666 652q57 -57 85.5 -129t28.5 -147t-28.5 -147t-85.5 -129t-129 -85.5t-147 -28.5t-147 28.5t-129 85.5t-85.5 129t-28.5 147t28.5 147t85.5 129t129 85.5t147 28.5t147 -28.5t129 -85.5z" />
<glyph unicode="&#xf058;" horiz-adv-x="780" d="M656 447q7 7 7 16.5t-7 16.5l-51 52q-8 7 -17.5 7t-16.5 -7l-221 -221q-7 -7 -16.5 -7t-16.5 7l-108 108q-7 7 -16.5 7t-17.5 -7l-51 -52q-7 -7 -7 -16.5t7 -16.5l156 -156q7 -7 18.5 -12t21.5 -5h27q10 0 21.5 5t18.5 12l269 269v0zM390 765q81 0 152 -30.5t124 -83.5 t83.5 -124t30.5 -152t-30.5 -152t-83.5 -124t-124 -83.5t-152 -30.5t-152 30.5t-124 83.5t-83.5 124t-30.5 152t30.5 152t83.5 124t124 83.5t152 30.5z" />
<glyph unicode="&#xf059;" horiz-adv-x="780" d="M480 343q12 10 24 22.5t22.5 27.5t17 34t6.5 44q0 33 -13.5 59t-36 43t-50.5 26t-56 9q-31 0 -55.5 -8t-41.5 -17.5t-26 -17.5t-10 -9q-8 -8 -1 -19l46 -56q2 -4 10 -6q6 0 11 3l5 4t13.5 8.5t19 8t22.5 3.5q20 0 34 -11t14 -28q0 -18 -12 -31.5t-30 -29.5 q-11 -9 -22.5 -20t-21 -25t-15.5 -31t-6 -39v-31q0 -6 4.5 -10.5t10.5 -4.5h80q6 0 10 4.5t4 10.5v25q0 19 12.5 32.5t30.5 29.5zM437 199q0 6 -4 10.5t-10 4.5h-80q-6 0 -10.5 -4.5t-4.5 -10.5v-76q0 -6 4.5 -10.5t10.5 -4.5h80q6 0 10 4.5t4 10.5v76zM390 765 q81 0 152 -30.5t124 -83.5t83.5 -124t30.5 -152t-30.5 -152t-83.5 -124t-124 -83.5t-152 -30.5t-152 30.5t-124 83.5t-83.5 124t-30.5 152t30.5 152t83.5 124t124 83.5t152 30.5z" />
<glyph unicode="&#xf05a;" horiz-adv-x="780" d="M508 191q0 14 -14 14h-38v282q0 6 -4 10.5t-10 4.5h-148q-6 0 -10 -4.5t-4 -10.5v-68q0 -14 14 -14h42v-200h-38q-6 0 -10.5 -4t-4.5 -10v-68q0 -6 4.5 -10.5t10.5 -4.5h196q6 0 10 4.5t4 10.5v68zM335 562q0 -6 4.5 -10.5t10.5 -4.5h92q6 0 10 4.5t4 10.5v81 q0 14 -14 14h-92q-6 0 -10.5 -4t-4.5 -10v-81zM390 765q81 0 152 -30.5t124 -83.5t83.5 -124t30.5 -152t-30.5 -152t-83.5 -124t-124 -83.5t-152 -30.5t-152 30.5t-124 83.5t-83.5 124t-30.5 152t30.5 152t83.5 124t124 83.5t152 30.5z" />
<glyph unicode="&#xf05b;" horiz-adv-x="780" d="M448 111q39 9 72.5 27.5t60.5 45.5t45.5 60.5t27.5 72.5h-175q-8 0 -13.5 5.5t-5.5 13.5v78q0 8 5.5 13.5t13.5 5.5h175q-9 39 -27.5 72.5t-45.5 60.5t-60.5 45.5t-72.5 27.5v-175q0 -8 -5.5 -13.5t-13.5 -5.5h-78q-8 0 -13.5 5.5t-5.5 13.5v175q-39 -9 -72.5 -27.5 t-60.5 -45.5t-45.5 -60.5t-27.5 -72.5h175q8 0 13.5 -5.5t5.5 -13.5v-78q0 -8 -5.5 -13.5t-13.5 -5.5h-175q9 -39 27.5 -72.5t45.5 -60.5t60.5 -45.5t72.5 -27.5v175q0 8 5.5 13.5t13.5 5.5h78q8 0 13.5 -5.5t5.5 -13.5v-175v0zM390 765q81 0 152 -30.5t124 -83.5t83.5 -124 t30.5 -152t-30.5 -152t-83.5 -124t-124 -83.5t-152 -30.5t-152 30.5t-124 83.5t-83.5 124t-30.5 152t30.5 152t83.5 124t124 83.5t152 30.5z" />
<glyph unicode="&#xf05c;" horiz-adv-x="780" d="M554 484q14 -14 0 -28l-81 -81l81 -81q14 -14 0 -28l-55 -55q-6 -6 -14 -6t-14 6l-81 81l-81 -81q-6 -6 -14 -6t-14 6l-55 55q-6 6 -6 14t6 14l81 81l-81 81q-6 6 -6 14t6 14l55 55q14 14 28 0l81 -81l81 81q14 14 28 0l55 -55v0zM390 102q57 0 106.5 21.5t86.5 58.5 t58.5 86.5t21.5 106.5t-21.5 106.5t-58.5 86.5t-86.5 58.5t-106.5 21.5t-106.5 -21.5t-86.5 -58.5t-58.5 -86.5t-21.5 -106.5t21.5 -106.5t58.5 -86.5t86.5 -58.5t106.5 -21.5zM390 765q81 0 152 -30.5t124 -83.5t83.5 -124t30.5 -152t-30.5 -152t-83.5 -124t-124 -83.5 t-152 -30.5t-152 30.5t-124 83.5t-83.5 124t-30.5 152t30.5 152t83.5 124t124 83.5t152 30.5z" />
<glyph unicode="&#xf05d;" horiz-adv-x="780" d="M530 498q5 5 13.5 5t13.5 -5l56 -56q5 -5 5 -13.5t-5 -13.5l-200 -200q-6 -6 -16 -10t-18 -4h-56q-8 0 -18 4t-16 10l-122 122q-5 5 -5 13.5t5 13.5l56 56q5 5 13.5 5t13.5 -5l87 -88q14 -12 28 0l165 166v0zM390 102q57 0 106.5 21.5t86.5 58.5t58.5 86.5t21.5 106.5 t-21.5 106.5t-58.5 86.5t-86.5 58.5t-106.5 21.5t-106.5 -21.5t-86.5 -58.5t-58.5 -86.5t-21.5 -106.5t21.5 -106.5t58.5 -86.5t86.5 -58.5t106.5 -21.5zM390 765q81 0 152 -30.5t124 -83.5t83.5 -124t30.5 -152t-30.5 -152t-83.5 -124t-124 -83.5t-152 -30.5t-152 30.5 t-124 83.5t-83.5 124t-30.5 152t30.5 152t83.5 124t124 83.5t152 30.5z" />
<glyph unicode="&#xf05e;" horiz-adv-x="780" d="M390 102q57 0 106.5 21.5t86.5 58.5t58.5 86.5t21.5 106.5q0 41 -11.5 78t-31.5 69l-377 -377q32 -20 69 -31.5t78 -11.5zM390 648q-57 0 -106.5 -21.5t-86.5 -58.5t-58.5 -86.5t-21.5 -106.5q0 -41 11.5 -78t32.5 -69l376 376q-32 21 -69 32.5t-78 11.5zM390 765 q81 0 152 -30.5t124 -83.5t83.5 -124t30.5 -152t-30.5 -152t-83.5 -124t-124 -83.5t-152 -30.5t-152 30.5t-124 83.5t-83.5 124t-30.5 152t30.5 152t83.5 124t124 83.5t152 30.5z" />
<glyph unicode="&#xf060;" horiz-adv-x="750" d="M14 342q-14 14 -14 33t14 33l328 329q14 14 33 14t33 -14l49 -49q14 -14 14 -33t-14 -33l-165 -165h411q20 0 33.5 -13.5t13.5 -33.5v-70q0 -19 -13.5 -32.5t-32.5 -13.5h-412l165 -165q14 -14 14 -33t-14 -33l-49 -49q-14 -14 -33 -14t-33 14l-328 328v0z" />
<glyph unicode="&#xf061;" horiz-adv-x="750" d="M736 408q14 -14 14 -32.5t-14 -32.5l-328 -329q-14 -14 -33 -14t-33 14l-49 49q-14 14 -14 33t14 33l165 165h-412q-19 0 -32.5 13.5t-13.5 33.5v70q0 19 13.5 32.5t32.5 13.5h412l-165 165q-14 14 -14 33t14 33l49 49q14 14 33 14t33 -14l328 -329v0z" />
<glyph unicode="&#xf062;" horiz-adv-x="750" d="M342 736q14 14 33 14t33 -14l328 -328q14 -14 14 -33t-14 -33l-49 -49q-14 -14 -32.5 -14t-32.5 14l-166 165v-412q0 -19 -13.5 -32.5t-32.5 -13.5h-70q-20 0 -33 13.5t-13 32.5v412l-165 -165q-14 -14 -33 -14t-33 14l-49 49q-14 14 -14.5 33t13.5 33l329 328v0z" />
<glyph unicode="&#xf063;" horiz-adv-x="750" d="M408 13q-14 -14 -33 -14t-33 14l-328 328q-14 14 -14 33t14 33l49 49q14 14 33 14t33 -14l165 -165v412q0 19 13.5 32.5t32.5 13.5h70q20 0 33 -13.5t13 -32.5v-412l166 165q14 14 32.5 14t32.5 -14l50 -49q14 -14 14 -33t-14 -33l-329 -328v0z" />
<glyph unicode="&#xf064;" d="M883 490q17 -16 17 -40q0 -23 -17 -40l-240 -241q-25 -25 -43 -17.5t-18 42.5v161q-128 -1 -225 -27.5t-164 -72t-105 -107t-48 -132.5q-2 -16 -18 -16h-1q-16 0 -18 16q-3 25 -3 50q0 102 35 192t106.5 157.5t181 107t259.5 40.5v143q0 35 17.5 42.5t43.5 -17.5 l240 -241v0z" />
<glyph unicode="&#xf065;" horiz-adv-x="750" d="M750 453q0 -26 -13 -31.5t-32 12.5l-81 81l-134 -133q-6 -7 -15 -7t-16 7l-78 77q-6 7 -6 16t6 15l134 134l-81 81q-19 19 -13 32t32 13h254q18 0 30 -12q13 -13 13 -30v-255zM369 291q6 -7 6 -16t-6 -15l-134 -134l81 -81q19 -19 13 -32t-32 -13h-254q-18 0 -30 12 q-13 13 -13 30v255q0 26 13 31.5t32 -12.5l81 -81l134 134q6 6 15 6t16 -6z" />
<glyph unicode="&#xf066;" horiz-adv-x="750" d="M744 665q6 -6 6 -15t-6 -16l-134 -133l81 -81q19 -19 13 -32t-32 -13h-254q-20 0 -30 12q-13 13 -13 30v255q0 26 13 31.5t32 -13.5l81 -81l134 134q6 7 15 7t16 -7l78 -78v0zM362 362q13 -13 13 -30v-255q0 -26 -13 -31.5t-32 13.5l-81 81l-134 -134q-6 -7 -15 -7t-16 7 l-78 78q-6 6 -6 15t6 16l134 133l-81 81q-19 19 -13 32t32 13h254q19 0 30 -12z" />
<glyph unicode="&#xf067;" horiz-adv-x="750" d="M704 456q19 0 32.5 -13.5t13.5 -32.5v-70q0 -19 -13.5 -32.5t-32.5 -13.5h-248v-247q0 -20 -13.5 -33.5t-32.5 -13.5h-70q-19 0 -32.5 13.5t-13.5 32.5v248h-247q-20 0 -33.5 13t-13.5 33v70q0 19 13.5 32.5t32.5 13.5h248v247q0 20 13 33.5t33 13.5h70q19 0 32.5 -13.5 t13.5 -32.5v-248h248v0z" />
<glyph unicode="&#xf068;" horiz-adv-x="750" d="M704 456q19 0 32.5 -13.5t13.5 -32.5v-70q0 -19 -13.5 -32.5t-32.5 -13.5h-657q-20 0 -33.5 13t-13.5 33v70q0 19 13.5 32.5t32.5 13.5h658v0z" />
<glyph unicode="&#xf069;" horiz-adv-x="697" d="M674 281q17 -10 21.5 -28t-4.5 -35l-35 -61q-10 -17 -28.5 -21.5t-35.5 4.5l-162 94v-187q0 -20 -13.5 -33.5t-33.5 -13.5h-69q-20 0 -33.5 13.5t-13.5 32.5v188l-162 -94q-17 -10 -35.5 -5t-28.5 22l-35 61q-9 17 -4.5 35t21.5 28l163 94l-163 94q-17 10 -22 28t5 35 l35 61q10 17 28.5 21.5t35.5 -4.5l162 -94v187q0 20 13.5 33.5t33.5 13.5h69q20 0 33.5 -13.5t13.5 -32.5v-188l162 94q17 9 35.5 4.5t28.5 -21.5l34 -61q10 -17 5.5 -35t-21.5 -28l-163 -94l163 -94v0z" />
<glyph unicode="&#xf06a;" horiz-adv-x="780" d="M452 622q0 5 -4 11q-4 4 -11 4h-94q-7 0 -11 -4q-4 -6 -4 -11l7 -361q2 -14 15 -14h79q6 0 10.5 4t4.5 10zM449 200q0 6 -4.5 10.5t-10.5 4.5h-88q-6 0 -10 -4.5t-4 -10.5v-85q0 -6 4 -10.5t10 -4.5h88q6 0 10.5 4.5t4.5 10.5v85zM390 765q81 0 152 -30.5t124 -83.5 t83.5 -124t30.5 -152t-30.5 -152t-83.5 -124t-124 -83.5t-152 -30.5t-152 30.5t-124 83.5t-83.5 124t-30.5 152t30.5 152t83.5 124t124 83.5t152 30.5z" />
<glyph unicode="&#xf06b;" horiz-adv-x="918" d="M555 497h-192v-389q0 -16 11.5 -27.5t27.5 -11.5h114q16 0 27.5 11.5t11.5 27.5v389zM225 631q0 -24 16.5 -40.5t40.5 -16.5h116l-74 96q-5 5 -15.5 12t-26.5 7q-24 0 -40.5 -17t-16.5 -41zM520 574h116q24 0 40.5 16.5t16.5 40.5t-16.5 41t-40.5 17q-16 0 -26.5 -7 t-15.5 -12zM899 497q8 0 13.5 -5.5t5.5 -13.5v-191q0 -8 -5.5 -13.5t-13.5 -5.5h-57v-211q0 -23 -17 -40t-41 -17h-650q-24 0 -40.5 17t-16.5 40v211h-58q-8 0 -13.5 5.5t-5.5 13.5v191q0 8 5.5 13.5t13.5 5.5h263q-28 0 -52.5 10.5t-42.5 28.5t-28.5 42.5t-10.5 52.5 t10.5 52.5t28.5 42.5t42.5 28.5t52.5 10.5q30 0 56.5 -12t43.5 -34l77 -99l77 99q17 22 43.5 34t56.5 12q28 0 52.5 -10.5t42.5 -28.5t28.5 -42.5t10.5 -52.5t-10.5 -52.5t-28.5 -42.5t-42.5 -28.5t-52.5 -10.5h263v0z" />
<glyph unicode="&#xf06c;" horiz-adv-x="936" d="M669 405q16 -2 28 9.5t13 27.5q1 17 -10 28.5t-28 12.5q-72 3 -135.5 -8t-120.5 -36t-109 -65t-101 -97q-11 -13 -10 -29t14 -27q10 -9 25 -9q18 0 30 13q44 50 88.5 85.5t93.5 57t103.5 30.5t118.5 7zM893 744q32 -65 40.5 -137.5t-8.5 -157.5q-44 -238 -283 -361 q-113 -60 -228 -60q-75 0 -150 26q-11 4 -22 10l-22 12q-14 8 -28 15t-24 7q-5 -1 -11.5 -8.5t-13.5 -17t-13 -20t-10 -16.5q-7 -11 -13 -20t-11 -16q-12 -15 -31 -15h-2q-14 1 -24 6t-16.5 12t-10 14t-4.5 11q-13 18 -5 38q10 26 27.5 43.5t34.5 31.5q14 11 24.5 21 t13.5 21q1 3 0 6t-5 12q-3 6 -5.5 13.5t-4.5 17.5q-12 78 6.5 144t58.5 118.5t95 90.5t115 59q40 14 87.5 16.5t99.5 3.5q30 0 62 1t62 5.5t55.5 14t41.5 26.5q10 10 19 20t18.5 17.5t21 12t28.5 4.5q11 0 20.5 -5.5t14.5 -15.5z" />
<glyph unicode="&#xf06d;" horiz-adv-x="706" d="M591 456q54 -52 84.5 -116t30.5 -124q0 -53 -25 -95.5t-71 -72.5t-111.5 -46.5t-145.5 -16.5t-145.5 16.5t-111.5 46.5t-71 72.5t-25 95.5q0 60 31 124t85 116q5 8 16.5 6.5t15.5 -10.5q2 -8 0 -14q-4 -17 -7 -41t-2 -49.5t6.5 -49.5t18.5 -41q15 -18 38 -24 q-24 75 -19.5 143t24 126.5t49.5 106t58 81.5t48 52t21 19q12 9 23 0q5 -4 6.5 -10.5t-0.5 -11.5q0 -1 -7.5 -21t-10.5 -50t3.5 -65.5t34.5 -66.5q18 -21 33 -41.5t25.5 -45.5t16.5 -58.5t6 -79.5q0 -16 -15 -19q-6 -1 -12 2t-8 9q-7 15 -20.5 24t-30.5 9q-23 0 -39 -16.5 t-16 -39.5q0 -59 76 -59q48 0 75 31q18 21 26 49.5t10 56t1 50t-2 30.5q-3 6 0 14q4 9 15.5 10.5t17.5 -6.5z" />
<glyph unicode="&#xf06e;" d="M450 128q58 0 111.5 16t101.5 45t89 71t73 93q-39 63 -91.5 110.5t-115.5 76.5q25 -29 39 -65t14 -78q0 -47 -17.5 -87.5t-48.5 -71.5t-72 -48.5t-87 -17.5q-47 0 -87.5 17.5t-71.5 48.5t-48.5 71.5t-17.5 87.5q0 38 12.5 72.5t33.5 62.5q-57 -29 -106 -74.5t-86 -104.5 q32 -51 73 -93t89 -71t101.5 -45t111.5 -16zM446 543q-30 0 -57 -11.5t-46.5 -31t-31 -46.5t-11.5 -57q0 -11 8 -19.5t20 -8.5t20 8.5t8 19.5q0 38 26 64t64 26q12 0 20 8.5t8 19.5q0 12 -8 20t-20 8zM889 393q11 -19 11 -40.5t-11 -39.5q-39 -62 -88 -110.5t-105 -81.5 t-118 -50.5t-128 -17.5q-65 0 -127 17.5t-118.5 51t-105.5 82t-87 109.5q-12 18 -12 39.5t12 40.5q38 61 87 109.5t105.5 82t118.5 51t127 17.5q66 0 128 -17.5t118 -50.5t105 -81.5t88 -110.5z" />
<glyph unicode="&#xf070;" d="M300 419q0 -11 8 -19.5t20 -8.5t20 8.5t8 19.5q0 38 26 64t64 26q12 0 20 8.5t8 19.5q0 12 -8 20t-20 8q-30 0 -57 -11.5t-46.5 -31t-31 -46.5t-11.5 -57zM314 237q-42 31 -67.5 78t-25.5 104q0 38 12.5 72.5t33.5 63.5q-57 -30 -106 -75t-86 -105q40 -64 93.5 -112 t117.5 -77zM316 10q-3 -7 -11 -9q-2 -1 -5 -1t-9 2l-66 37q-7 4 -9 11.5t2 14.5l32 56q-71 33 -131.5 87t-106.5 127q-12 18 -12 39.5t12 40.5q38 61 87 109.5t105.5 82t118.5 51t127 17.5q26 0 51.5 -3.5t50.5 -8.5l43 77q4 7 12 9q6 3 14 -1l65 -37q7 -4 9.5 -11.5 t-1.5 -14.5zM889 415q11 -19 11 -40.5t-11 -39.5q-78 -124 -191.5 -191.5t-244.5 -68.5l43 78q102 12 186.5 70.5t142.5 151.5q-53 83 -128 138l37 67q45 -32 84 -73t71 -92zM671 419q0 -36 -10.5 -68.5t-29.5 -59.5t-45.5 -48t-57.5 -33l139 249q2 -10 3 -19.5t1 -20.5z " />
<glyph unicode="&#xf071;" horiz-adv-x="867" d="M467 218q7 0 12 5t5 12l7 309q0 7 -5 12t-12 5h-81q-8 0 -12.5 -5t-4.5 -12l6 -309q0 -7 5 -12t12 -5h68v0zM488 154q0 8 -4.5 13t-12.5 5h-75q-7 0 -12 -5t-5 -13v-72q0 -8 5 -12.5t12 -4.5h75q17 0 17 17v72zM433 765q16 0 27.5 -10.5t19.5 -23.5l376 -650q5 -8 8 -17 t3 -19q0 -24 -18.5 -34.5t-39.5 -10.5h-751q-21 0 -39.5 10.5t-18.5 34.5q0 10 3 19t8 17l375 650q8 13 19.5 23.5t27.5 10.5z" />
<glyph unicode="&#xf072;" horiz-adv-x="780" d="M714 765q27 0 46.5 -19.5t19.5 -46.5q0 -28 -19 -47l-181 -181q4 -10 18.5 -42.5t33.5 -76.5t39.5 -92.5t38 -90t29 -70.5t11.5 -33q0 -13 -8 -21q-3 -3 -9.5 -10.5t-13.5 -14.5t-14 -12.5t-12 -5.5q-7 0 -14 7l-238 324l-182 -183q2 -8 7.5 -24t11 -33t10 -32.5 t4.5 -22.5q0 -17 -11 -27t-22 -21q-5 -5 -12 -5q-8 0 -13 7l-86 115q-11 16 -27 27l-114 85q-7 5 -7 13q0 7 5 12q11 11 21 22t27 11q7 0 22.5 -4.5t32.5 -10t33 -11t24 -7.5l183 182l-325 240q-7 5 -7 13q0 5 5.5 12t12.5 14t14.5 13.5t10.5 9.5q7 8 21 8q4 0 33 -11.5 t71 -29t91 -38.5t92.5 -40t76.5 -33.5t43 -18.5l180 181q21 19 47 19z" />
<glyph unicode="&#xf073;" horiz-adv-x="750" d="M675 473h-600v-398h600v398zM694 661q23 0 39.5 -16.5t16.5 -39.5v-549q0 -23 -16.5 -39.5t-39.5 -16.5h-638q-23 0 -39.5 16.5t-16.5 39.5v549q0 23 16.5 39.5t39.5 16.5h36v-69q0 -28 19.5 -47.5t47.5 -19.5h15q28 0 48 19.5t20 47.5v69h58v-69q0 -28 19.5 -47.5 t47.5 -19.5h16q28 0 47.5 19.5t19.5 47.5v69h58v-69q0 -28 20 -47.5t48 -19.5h15q28 0 47.5 19.5t19.5 47.5v69h36v0zM439 330h-42v71h187v-34l-117 -232h-51l107 212q3 8 6 11l3 4v1q-3 0 -5 -1h-13h-75v-32zM177 158q0 36 20 58.5t43.5 39t43.5 32t20 36.5q0 20 -11.5 29 t-28.5 9q-11 0 -20.5 -4.5t-16.5 -11.5q-4 -4 -7 -8t-6 -9l-34 23q7 14 20 27q11 11 27.5 19t40.5 8q35 0 61 -20.5t26 -58.5q0 -21 -9 -36.5t-23 -28t-30 -22.5t-30 -20t-23.5 -21t-9.5 -25h92v34h42v-73h-185q-1 6 -1.5 12t-0.5 11zM576 563q-13 0 -21.5 8.5t-8.5 20.5 v128q0 12 8.5 21t21.5 9h15q12 0 21 -9t9 -21v-128q0 -12 -9 -20.5t-21 -8.5h-15v0zM367 563q-12 0 -20.5 8.5t-8.5 20.5v128q0 12 8.5 21t20.5 9h16q12 0 21 -9t9 -21v-128q0 -12 -9 -20.5t-21 -8.5h-16v0zM159 563q-12 0 -21 8.5t-9 20.5v128q0 12 9 21t21 9h15 q13 0 21.5 -9t8.5 -21v-128q0 -12 -8.5 -20.5t-21.5 -8.5h-15v0z" />
<glyph unicode="&#xf074;" d="M19 523q-8 0 -13.5 5t-5.5 13v75q0 19 19 19h107q33 0 62 -10t54.5 -27.5t47.5 -41t43 -50.5q-30 -44 -57 -87q-2 -4 -4.5 -7t-4.5 -7q-34 50 -68 84t-73 34h-107v0zM889 191q11 -9 11 -23q0 -13 -11 -22l-163 -136q-17 -14 -29 -10t-12 24v82h-99q-33 0 -62 10t-54 27.5 t-47.5 41t-42.5 50.5q14 20 27.5 41.5t27.5 42.5q2 5 5 8.5t5 8.5q34 -50 68 -83.5t73 -33.5h99v93q0 20 12 24t29 -10zM586 522q-26 0 -49 -15.5t-45.5 -41t-44.5 -58.5t-44 -68q-27 -43 -55.5 -85t-61.5 -75.5t-72.5 -54t-87.5 -20.5h-107q-8 0 -13.5 5.5t-5.5 13.5v75 q0 8 5.5 13.5t13.5 5.5h107q25 0 48.5 15t45.5 40.5t44 58.5t44 68q27 43 56 85.5t62 76t72 54t88 20.5h99v90q0 20 12 24t29 -10l163 -136q11 -9 11 -22q0 -14 -11 -23l-163 -135q-17 -14 -29 -10t-12 24v85h-99v0z" />
<glyph unicode="&#xf075;" horiz-adv-x="936" d="M468 765q97 0 182 -27t148.5 -73.5t100.5 -108.5t37 -133t-37 -133t-100.5 -108.5t-148.5 -73.5t-182 -27q-45 0 -88 6q-86 -68 -201 -94q-12 -2 -24.5 -4t-26.5 -4q-8 -1 -13.5 3t-7.5 12t2.5 13t9.5 10q11 11 21 21.5t18 25t14.5 34t11.5 47.5q-85 48 -134.5 118 t-49.5 154q0 71 37 133t100.5 108.5t148.5 73.5t182 27z" />
<glyph unicode="&#xf076;" horiz-adv-x="765" d="M19 521q-8 0 -13.5 5.5t-5.5 13.5v191q0 8 5.5 13.5t13.5 5.5h191q8 0 14 -5.5t6 -13.5v-191q0 -8 -6 -13.5t-14 -5.5h-191v0zM746 750q8 0 13.5 -5.5t5.5 -13.5v-191q0 -8 -5.5 -13.5t-13.5 -5.5h-191q-19 0 -19 19v191q0 8 5.5 13.5t13.5 5.5h191v0zM746 463 q8 0 13.5 -5.5t5.5 -13.5v-141q0 -66 -30 -124t-82 -101t-121.5 -68t-148.5 -25q-80 0 -149.5 25t-121.5 68t-82 101t-30 124v141q0 8 5.5 13.5t13.5 5.5h191q8 0 14 -5.5t6 -13.5v-141q0 -14 11 -29t31 -28.5t48 -22t63 -8.5q34 0 62.5 8.5t48.5 22t31 28.5t11 29v141 q0 19 19 19h191v0z" />
<glyph unicode="&#xf077;" horiz-adv-x="750" d="M342 535q14 14 33 14t33 -14l328 -329q14 -14 14 -32.5t-14 -32.5l-49 -50q-14 -14 -33 -14t-33 14l-248 249l-244 -249q-14 -14 -33 -14t-33 14l-49 50q-14 14 -14.5 32.5t13.5 32.5l329 329v0z" />
<glyph unicode="&#xf078;" horiz-adv-x="750" d="M408 87q-14 -14 -33 -14t-33 14l-328 329q-14 14 -14 32.5t14 32.5l49 50q14 14 33 14t33 -14l248 -249l244 249q14 14 33 14t33 -14l49 -50q14 -14 14.5 -32.5t-13.5 -32.5l-329 -329v0z" />
<glyph unicode="&#xf079;" horiz-adv-x="936" d="M397 160q3 -5 6 -9.5t8 -9.5l123 -137h-339q-16 0 -27.5 11.5t-11.5 27.5v449h-122q-27 0 -33 15t14 37l188 207q12 14 31 14t31 -14l188 -207q20 -22 14 -37t-33 -15h-122v-332h85v0zM902 258q27 0 33 -15t-14 -37l-188 -207q-12 -14 -31 -14t-31 14l-188 207 q-20 22 -14 37t33 15h122v331h-85l-6 10t-7 10l-124 136h339q16 0 27.5 -11t11.5 -28v-448h122v0z" />
<glyph unicode="&#xf07a;" d="M891 628q11 -13 8 -29l-53 -282q-3 -12 -13 -20.5t-24 -8.5h-529l17 -82q2 -8 8.5 -13t14.5 -5h418q8 0 13.5 -5.5t5.5 -13.5v-38q0 -8 -5.5 -13t-13.5 -5h-80h-318h-51q-8 0 -18 1.5t-17 4.5q-3 1 -7 6.5t-7.5 12t-6 13t-3.5 10.5l-105 496q-2 8 -8.5 13t-14.5 5h-83 q-19 0 -19 19v37q0 19 19 19h113q8 0 18.5 -2t17.5 -4q3 -2 7 -7t7.5 -11.5t6 -13t3.5 -10.5l13 -61h658q17 0 28 -13zM602 56q0 23 16.5 40t39.5 17t39.5 -17t16.5 -40t-16.5 -39.5t-39.5 -16.5t-39.5 16.5t-16.5 39.5zM284 56q0 23 16.5 40t39.5 17q24 0 40.5 -17 t16.5 -40t-16.5 -39.5t-40.5 -16.5q-23 0 -39.5 16.5t-16.5 39.5z" />
<glyph unicode="&#xf07b;" d="M844 638q23 0 39.5 -17t16.5 -40v-525q0 -23 -16.5 -39.5t-39.5 -16.5h-788q-23 0 -39.5 16.5t-16.5 39.5v638q0 23 16.5 39.5t39.5 16.5h338q23 0 39.5 -16.5t16.5 -39.5t16.5 -39.5t39.5 -16.5h338z" />
<glyph unicode="&#xf07c;" d="M900 398l-127 -370q-3 -11 -15 -19.5t-23 -8.5h-714l120 371q3 11 15 19t23 8h721zM178 473q-18 0 -35 -6t-32 -16.5t-26 -25t-17 -31.5l-68 -209v509q0 23 16.5 39.5t39.5 16.5h338q23 0 39.5 -16.5t16.5 -39.5t16.5 -39.5t39.5 -16.5h216q23 0 39.5 -17t16.5 -40v-108 h-600v0z" />
<glyph unicode="&#xf07d;" horiz-adv-x="390" d="M361 191q23 0 28 -11t-12 -28l-156 -156q-11 -11 -26 -11t-26 11l-157 156q-16 17 -11 28t28 11h99v368h-99q-23 0 -28 11t12 28l156 156q11 11 26 11t26 -11l157 -156q16 -17 11 -28t-28 -11h-99v-368h99v0z" />
<glyph unicode="&#xf07e;" horiz-adv-x="780" d="M206 190q0 -23 -11 -28t-28 12l-156 156q-11 11 -11 26t11 26l156 157q17 16 28 11.5t11 -27.5v-100h368v99q0 23 11 28t28 -11l156 -157q11 -11 11 -26t-11 -26l-156 -157q-17 -16 -28 -11t-11 28v99h-368v-99v0z" />
<glyph unicode="&#xf080;" d="M750 129h-99v450h99v-450zM584 129h-99v289h99v-289zM415 129h-98v379h98v-379zM249 129h-99v177h99v-177zM825 675h-750v-600h750v600zM844 750q23 0 39.5 -16.5t16.5 -39.5v-638q0 -23 -16.5 -39.5t-39.5 -16.5h-787q-23 0 -40 16.5t-17 39.5v638q0 23 17 39.5t40 16.5 h787v0z" />
<glyph unicode="&#xf081;" horiz-adv-x="750" d="M651 364q7 7 2 16q-4 9 -15 7h-2q11 11 15 22q4 10 -4 16q-7 7 -16 1q-4 -2 -14.5 -5t-22.5 -3q-2 0 -3.5 0.5t-3.5 0.5q0 1 -0.5 2t-0.5 2q-8 30 -28 54t-46 35q2 2 3 4t3 4q3 8 0 16q-1 3 -6 8t-17 4q-1 2 -3 4q-6 6 -12 4q-12 -2 -24 -6l-1 1q-7 4 -15 -1 q-29 -18 -48 -49t-33 -66q-17 15 -28 20q-30 17 -63 31t-75 30q-7 2 -12 -2q-5 -3 -7 -10q-1 -13 4 -28.5t19 -30.5q-12 -3 -10 -16q6 -33 33 -49l-6 -6q-7 -7 -2 -16q2 -6 13 -18.5t32 -18.5q-3 -6 -3 -11t1 -7q3 -16 19 -24q-18 -12 -38.5 -16.5t-41.5 -3t-40.5 10 t-34.5 22.5q-4 4 -9.5 4t-9.5 -4q-11 -9 -2 -19q39 -54 97 -82.5t127 -28.5q47 0 90 13t78 36t60.5 55t37.5 70q40 3 63 28zM656 750q39 0 66.5 -27.5t27.5 -66.5v-562q0 -20 -7.5 -37t-20 -29.5t-30 -20t-36.5 -7.5h-563q-19 0 -36 7.5t-29.5 20t-20 29.5t-7.5 37v562 q0 19 7.5 36.5t20 30t29.5 20t36 7.5h563v0z" />
<glyph unicode="&#xf082;" horiz-adv-x="750" d="M657 750q39 0 66.5 -27.5t27.5 -66.5v-562q0 -20 -7.5 -37t-20 -29.5t-30 -20t-36.5 -7.5h-237v314h84q6 0 10.5 4t4.5 10l6 82q0 7 -4 12q-5 5 -11 5h-90v36q0 20 5 26.5t26 6.5q12 0 27 -2t29 -5q3 0 6.5 0.5t5.5 2.5q5 3 7 11l11 79q2 14 -12 17q-44 12 -92 12 q-147 0 -147 -143v-41h-50q-16 0 -16 -16v-82q0 -6 4.5 -10.5t11.5 -4.5h50v-314h-192q-19 0 -36 7.5t-29.5 20t-20 29.5t-7.5 37v562q0 19 7.5 36.5t20 30t29.5 20t36 7.5h563v0z" />
<glyph unicode="&#xf083;" d="M825 672h-467l-7 -45h-276v-68h750v113zM272 346q0 -37 14 -69.5t38 -56.5t56.5 -38t69.5 -14t69.5 14t56.5 38t38 56.5t14 69.5t-14 69.5t-38 56.5t-56.5 38t-69.5 14t-69.5 -14t-56.5 -38t-38 -56.5t-14 -69.5zM825 134h-750v-56h750v56zM130 655h154v45h-154v-45z M844 750q23 0 39.5 -16.5t16.5 -39.5v-638q0 -23 -16.5 -39.5t-39.5 -16.5h-788q-23 0 -39.5 16.5t-16.5 39.5v638q0 23 16.5 39.5t39.5 16.5h788v0zM404 346q0 20 13.5 33t32.5 13v1q9 0 15 6t6 14q0 9 -6 15t-15 6q-36 0 -61.5 -26t-25.5 -62q0 -8 6 -14t14 -6q9 0 15 6 t6 14zM572 346q0 -25 -9.5 -47.5t-26 -39t-39 -26t-47.5 -9.5t-47.5 9.5t-39 26t-26 39t-9.5 47.5t9.5 47.5t26 39t39 26t47.5 9.5t47.5 -9.5t39 -26t26 -39t9.5 -47.5z" />
<glyph unicode="&#xf084;" horiz-adv-x="936" d="M415 484q13 18 17.5 38.5t1 41t-14.5 38.5t-29 31t-38.5 17.5t-41 1t-38.5 -14.5t-31 -29q-18 -26 -19 -56t13 -56q-29 5 -57 -6t-47 -37q-13 -18 -17.5 -38.5t-1 -40.5t14.5 -38t29 -31t38.5 -17.5t40.5 -1t38 14.5t31 29q19 26 20 56t-13 56q29 -5 57 5.5t47 36.5z M829 253l-49 -68l121 -87q21 -15 25.5 -40.5t-10.5 -46.5q-16 -21 -41 -25t-46 11l-392 280q-38 -39 -83 -63.5t-91 -33.5t-90.5 -1t-81.5 35q-42 30 -65 77t-26 101.5t14.5 112.5t55.5 111t87.5 88t102 50t104 8.5t93.5 -36.5q37 -26 59 -65.5t29 -86t-2 -97t-33 -99.5 l202 -145l49 68l-51 36q-7 5 -8.5 13.5t3.5 15.5l25 34q5 7 13 8.5t16 -3.5l168 -121q8 -5 9 -13.5t-4 -15.5l-24 -34q-5 -7 -13.5 -8.5t-15.5 3.5z" />
<glyph unicode="&#xf085;" horiz-adv-x="936" d="M706 589q0 -23 15.5 -38.5t37.5 -15.5q23 0 38.5 15.5t15.5 37.5q0 23 -15.5 38.5t-37.5 15.5q-23 0 -38.5 -15.5t-15.5 -37.5zM874 513l4 -8l6.5 -13t6 -13t2.5 -7q0 -3 -11 -11.5t-24.5 -17.5t-25 -16t-12.5 -7q-2 0 -7 4.5t-10.5 10.5t-10 11.5t-6.5 7.5q-7 -2 -14 -3 t-14 0h-7q-2 -2 -6 -8t-8.5 -12.5t-9 -11.5t-6.5 -5t-14.5 5.5t-26.5 12.5t-25.5 14t-11.5 10q0 1 1.5 7t4 13t4.5 13.5t3 8.5q-11 11 -19 29q-26 1 -36.5 2.5t-14 9t-2.5 25.5t-2 53q0 3 6 6t14.5 5t16.5 3t11 2q5 16 15 31q-1 2 -4 8.5t-6 13.5t-5.5 12.5t-2.5 7.5 q0 3 10.5 11t24 17t25 16t13.5 7t6.5 -4.5t10 -10.5t10 -11.5t6.5 -7.5q7 2 14 3t14 0h7q1 2 5.5 8t9 12.5t8.5 11.5t6 5t14.5 -5.5t27 -12.5t26 -14t11.5 -10q0 -2 -2 -7.5t-4 -12.5t-4 -13.5t-3 -8.5q10 -12 19 -29q25 -2 36 -3.5t14 -9t2.5 -25.5t1.5 -52q0 -3 -6 -6 t-14 -5t-16 -3t-11 -2q-6 -18 -15 -31zM682 179q0 -24 17 -41.5t41 -17.5t41.5 17t17.5 42q0 24 -17 41t-42 17q-24 0 -41 -17t-17 -41zM877 116q1 -3 5.5 -9t9 -13t8 -13.5t3.5 -8.5t-9 -11.5t-21 -20t-23 -20t-14 -12.5l-4 -2q-2 0 -8 4t-12.5 9.5t-12.5 10.5t-8 7 q-18 -6 -38 -9q-1 -3 -4.5 -10.5t-7.5 -15t-8 -13.5t-7 -6t-17 3.5t-30.5 9t-29.5 11.5t-13 11q0 11 2.5 23t4.5 23q-8 6 -14 13t-11 15q-11 -1 -22 -1.5t-22 -0.5h-7t-4 5q-1 4 -4 17.5t-6.5 28.5t-6 27t-2.5 14q0 3 6.5 6.5t15 7t16.5 6t11 3.5q2 11 4.5 19t7.5 18 q-2 2 -6.5 8.5t-9 13.5t-8 13.5t-3.5 8.5t9 11.5t21 20t23 19.5t14 12l4 2q2 0 8 -4t12.5 -9.5t12.5 -10.5t8 -7q17 6 37 9q1 3 4.5 10.5t8 15t8.5 13.5t7 6q2 0 16.5 -3.5t31 -9t29.5 -11.5t13 -11q0 -11 -2.5 -23t-4.5 -23q8 -6 14 -13t11 -15q12 1 24 1.5t23 0.5 q4 0 9 -13t8.5 -29.5t6 -31.5t2.5 -19q0 -3 -6.5 -6.5t-14.5 -6.5l-16 -6t-11 -4q-4 -19 -11 -35zM294 346q18 0 34 7t28 19t19 28t7 34t-7 34.5t-19 28.5t-28 19t-34 7q-37 0 -63 -26t-26 -63q0 -18 7 -34t19 -28t28.5 -19t34.5 -7zM506 496q5 -1 18 -2.5t27 -4t25 -5.5 t11 -7v-87q0 -5 -11 -8t-25 -5.5t-27.5 -3.5t-17.5 -2q-7 -21 -18 -43q11 -15 21.5 -29.5t23.5 -28.5l1 -5q0 -3 -10 -14.5t-23 -24.5t-24.5 -23t-14.5 -10q-1 0 -10 6.5t-20 15t-20.5 16t-12.5 9.5q-22 -11 -43 -18q0 -5 -1.5 -18t-4 -27.5t-6 -25.5t-7.5 -11h-87 q-4 0 -7.5 11t-5.5 25.5t-3.5 27.5t-1.5 18q-22 6 -43 18q-15 -11 -30 -22.5t-29 -23.5l-5 -1q-2 0 -13.5 10t-24 23t-22.5 24.5t-10 14.5q0 1 6.5 10t14.5 19.5t15 20t9 12.5q-11 21 -19 46q-5 1 -18 2.5t-27 3.5t-25 5t-11 7v88q0 4 11 7.5t25.5 5.5t27.5 3.5t18 1.5 q6 24 18 43l-22 30t-23 29l-2 5q0 3 10 14.5t23 24.5t24.5 23t14.5 10q1 0 10 -6.5t20 -15t21 -16.5t12 -10q21 12 44 18q0 4 1.5 18t3.5 28t5 25.5t8 11.5h87q4 0 7.5 -11.5t5.5 -25.5t3.5 -28t2.5 -18q22 -6 42 -17q15 11 30.5 22t29.5 23l4 2q2 0 13.5 -10.5t24 -23 t23 -24t10.5 -14.5q0 -2 -6.5 -11t-14.5 -19.5t-15.5 -20t-9.5 -12.5q11 -19 19 -45z" />
<glyph unicode="&#xf086;" horiz-adv-x="936" d="M760 487q0 -57 -30 -108t-81.5 -88.5t-120.5 -59.5t-148 -22q-18 0 -36 1.5t-35 3.5q-72 -55 -164 -76q-10 -2 -20 -3.5t-21 -3.5q-6 -1 -10.5 3t-6.5 9v1q-2 6 1.5 9.5l8.5 8.5q9 9 17 18t14.5 20.5t12 27t9.5 38.5q-69 38 -109.5 95.5t-40.5 125.5q0 58 30 108.5 t81.5 88t120.5 59.5t148 22t148 -22t120.5 -59.5t81.5 -88t30 -108.5zM936 341q0 -68 -40.5 -125.5t-109.5 -95.5q4 -23 9.5 -38.5t12.5 -27t14.5 -20.5t16.5 -18q5 -5 8.5 -9t1.5 -9v-1q-1 -6 -6 -9.5t-11 -2.5q-11 2 -21 3.5t-20 3.5q-47 10 -88 29.5t-76 46.5 q-17 -2 -35 -3.5t-36 -1.5q-69 0 -129.5 17t-109.5 46q3 2 6.5 4t6.5 4q25 -3 50 -3q96 0 180 27.5t145.5 75.5t97 113t35.5 140q0 20 -3 41q47 -38 74 -85.5t27 -101.5z" />
<glyph unicode="&#xf087;" horiz-adv-x="780" d="M721 307q0 11 -6 21t-13 17q8 14 14 28t6 31t-8.5 27t-21 15t-27.5 6t-28 1q-22 0 -44 -1.5t-44 -1.5q-15 0 -30 1.5t-29 7.5q0 20 8 38t17.5 36.5t17 38.5t7.5 44q0 16 -5 32t-14.5 29t-23 21.5t-31.5 8.5h-5.5t-5.5 -1q-4 -2 -4.5 -4l-1.5 -6q-6 -29 -11 -60.5 t-19 -57.5q-14 -25 -36 -43t-42 -38q-14 -15 -24 -27.5t-20.5 -23.5t-23.5 -20.5t-32 -17.5h-1v-314q34 0 66.5 -8t65.5 -17t69 -17t78 -8q22 0 48 3t48.5 13t38 27.5t15.5 46.5q0 5 -0.5 9t-1.5 9q17 8 26 26t9 36q0 19 -10 33q29 24 29 60zM154 96q16 0 27.5 11t11.5 28 q0 16 -11.5 27.5t-27.5 11.5q-17 0 -28 -11.5t-11 -27.5q0 -17 11 -28t28 -11zM770 348q9 -21 9 -44q0 -38 -20 -69q5 -29 -3.5 -58t-28.5 -51q-2 -41 -22 -68t-50 -43.5t-66 -23t-70 -6.5q-35 0 -70.5 5t-69.5 14q-34 10 -68 21t-70 11h-183q-24 0 -41 17t-17 41v314 q0 24 17 41t41 17h170q13 7 21 15t17 19q8 10 16 19t17 18q16 17 37 33.5t32 36.5q8 14 11.5 31.5t6 35t6 34t11.5 29.5t23 20.5t40 7.5q30 0 54.5 -12.5t41.5 -33.5t26.5 -48t9.5 -55q0 -29 -8.5 -55t-20.5 -52l34 2t34 1q27 0 52.5 -5t45.5 -17t32.5 -33t12.5 -53 q0 -14 -2.5 -28t-7.5 -28z" />
<glyph unicode="&#xf088;" horiz-adv-x="780" d="M59 248q0 -11 6 -21t13 -17q-8 -14 -14 -28t-6 -31t8.5 -27t21 -15t27.5 -6t28 -1q23 0 44.5 1.5t43.5 1.5q15 0 30 -1.5t29 -7.5q0 -20 -8 -38t-17.5 -36.5t-17 -38.5t-7.5 -44q0 -16 5 -32t14.5 -29t23 -21t31.5 -8q2 0 5.5 -0.5t5.5 0.5q4 2 4.5 4l1.5 6q6 29 11 60.5 t19 57.5q14 25 36 43t42 38q14 15 24 27.5t20.5 23.5t23 20.5t32.5 17.5h1v314q-35 0 -67 8t-65 17.5t-69 17.5t-78 8q-22 0 -48 -3.5t-48.5 -13t-38 -27.5t-15.5 -47q0 -5 0.5 -9t1.5 -9q-17 -8 -26 -26t-9 -36q0 -19 10 -33q-29 -24 -29 -60zM626 459q-16 0 -27.5 -11 t-11.5 -28q0 -16 11.5 -27.5t27.5 -11.5q17 0 28 11.5t11 27.5q0 17 -11 28t-28 11zM10 207q-9 21 -9 44q0 38 20 69q-5 29 3.5 58t28.5 51q2 41 22 68t50 43.5t66 23t70 6.5q35 0 70.5 -5t69.5 -14q34 -10 68 -21t70 -11h183q24 0 41 -17t17 -41v-314q0 -24 -17 -41 t-41 -17h-170q-13 -7 -21 -15t-17 -19q-8 -10 -16 -19t-17 -18q-16 -17 -37 -33.5t-32 -36.5q-12 -21 -15 -48.5t-9 -52t-21.5 -41t-52.5 -16.5q-30 0 -54.5 12.5t-41.5 33.5t-26.5 48t-9.5 55q0 29 8.5 55t20.5 52l-34 -2t-34 -1q-27 0 -52.5 5t-45.5 17t-32.5 33t-12.5 53 q0 14 2.5 28t7.5 28z" />
<glyph unicode="&#xf089;" horiz-adv-x="409" d="M409 107l-221 -116q-20 -11 -31.5 -3t-7.5 31l42 246l-178 174q-17 16 -12.5 29.5t26.5 16.5l247 36l111 224q11 20 24 20v-658z" />
<glyph unicode="&#xf08a;" horiz-adv-x="880" d="M440 -15q-16 0 -27 11l-301 300q-2 1 -19.5 20t-38 50t-37.5 71.5t-17 86.5q0 67 21 113t55 74.5t76.5 41t86.5 12.5q31 0 61 -10.5t56 -26t47.5 -34t36.5 -33.5q15 15 37 33.5t48 34t55.5 26t61.5 10.5q43 0 85.5 -12.5t76.5 -41t55 -74.5t21 -113q0 -46 -17 -86.5 t-37.5 -71.5t-38.5 -50t-19 -21l-300 -299q-13 -11 -28 -11zM239 687q-28 0 -56.5 -6.5t-52 -24.5t-38 -49.5t-14.5 -82.5q0 -33 13.5 -64t30 -55t30.5 -38.5l14 -14.5l274 -273l274 273l14 14.5t30.5 38.5t30 55t13.5 64q0 51 -14.5 82.5t-38 49.5t-52 24.5t-55.5 6.5 q-26 0 -52.5 -12.5t-50 -30t-42 -36t-27.5 -29.5q-12 -15 -30 -15t-30 15q-9 11 -27.5 29.5t-42 36t-50 30t-51.5 12.5z" />
<glyph unicode="&#xf08b;" horiz-adv-x="825" d="M150 0q-31 0 -58 12t-47.5 32.5t-32.5 47.5t-12 58v450q0 31 12 58t32.5 47.5t47.5 32.5t58 12h225v-94h-225q-23 0 -39.5 -16.5t-16.5 -39.5v-450q0 -23 16.5 -39.5t39.5 -16.5h225v-94h-225v0zM816 396q9 -9 9 -21.5t-9 -20.5l-270 -270q-9 -9 -21 -9q-5 0 -11 2 q-19 8 -19 28v142h-209q-16 0 -27 11t-11 27v180q0 16 11 26.5t27 10.5h209v143q0 20 19 28q19 7 32 -7l270 -270v0z" />
<glyph unicode="&#xf08c;" horiz-adv-x="750" d="M649 350q0 72 -42 104q-40 31 -103 31q-50 0 -85 -23q-4 -3 -13 -12v12q0 14 -14 14h-95q-5 0 -9.5 -4t-4.5 -10v-345q0 -5 4.5 -9.5t9.5 -4.5h98q6 0 10 4.5t4 9.5v187q0 28 8 47q15 31 55 31q32 0 42 -19q7 -11 7 -35v-211q0 -5 4 -9.5t10 -4.5h100q6 0 10 4.5t4 9.5 v233zM167 515q28 0 47.5 19.5t19.5 47.5q0 27 -19.5 46.5t-47.5 19.5q-27 0 -46.5 -19.5t-19.5 -46.5q0 -28 19.5 -47.5t46.5 -19.5zM230 462q0 14 -14 14h-98q-5 0 -9.5 -4t-4.5 -10v-345q0 -5 4.5 -9.5t9.5 -4.5h98q6 0 10 4.5t4 9.5v345zM656 750q39 0 66.5 -27.5 t27.5 -66.5v-562q0 -20 -7.5 -37t-20 -29.5t-30 -20t-36.5 -7.5h-562q-39 0 -66.5 27.5t-27.5 66.5v562q0 19 7.5 36.5t20 30t29.5 20t37 7.5h562v0z" />
<glyph unicode="&#xf08d;" horiz-adv-x="936" d="M625 222q5 6 4 14t-8 13q-6 5 -14 4t-13 -8q-25 -33 -50 -56.5t-46.5 -37t-38 -17.5t-23.5 2q-7 5 -14.5 3.5t-12.5 -8.5q-5 -6 -4 -14t8 -13q14 -11 34 -11t43 10.5t46.5 28t46 41t42.5 49.5zM405 236q4 -4 11 -4q10 0 16 8q5 7 4 14.5t-8 12.5l-169 126 q-8 -7 -16 -13.5t-16 -11.5zM115 399q15 0 32 8.5t35 22.5t35.5 32.5t32.5 38.5q5 7 3.5 15t-7.5 13q-7 5 -15 4t-13 -8q-38 -51 -67.5 -70t-35.5 -17q-7 5 -15 3.5t-13 -7.5q-5 -7 -3.5 -15t7.5 -13q10 -7 24 -7zM930 19q12 -12 2 -26q-6 -8 -16 -8q-5 0 -9 3l-252 143 q-36 -39 -76 -66t-79 -39.5t-74 -9.5t-62 23q-37 27 -46.5 77.5t4.5 111.5l-148 109q-37 -16 -71 -15.5t-60 19.5q-25 19 -35.5 51t-6.5 72t22 84t49 86t68 72t74 45t71 14.5t59 -19.5q26 -20 36 -52.5t6 -72.5l147 -110q54 31 105 36t88 -23q27 -20 39.5 -53t11.5 -73.5 t-15 -86.5t-41 -92l209 -200v0z" />
<glyph unicode="&#xf08e;" d="M900 680v-239q0 -12 -8.5 -20.5t-19.5 -7.5h-42q-12 0 -20 8t-8 20v131l-377 -376q-8 -8 -20 -8t-20 8l-39 39q-8 8 -8 20t8 20l376 377h-131q-12 0 -20 8t-8 20v42q-1 11 7.5 19.5t20.5 8.5h281q11 0 19.5 -8.5t8.5 -19.5v-42zM731 316q20 -15 44 -24t50 -10v-132 q0 -31 -12 -58t-32.5 -47.5t-47.5 -32.5t-58 -12h-525q-31 0 -58.5 12t-47.5 32.5t-32 47.5t-12 58v450q0 31 12 58.5t32 47.5t47.5 32t58.5 12h284q-1 -7 -2 -13.5t-1 -14.5v-43q0 -11 3 -23h-284q-23 0 -39.5 -16.5t-16.5 -39.5v-450q0 -23 16.5 -39.5t39.5 -16.5h525 q23 0 39.5 16.5t16.5 39.5v166z" />
<glyph unicode="&#xf090;" horiz-adv-x="825" d="M568 396q8 -9 8 -21.5t-8 -20.5l-270 -270q-9 -9 -21 -9q-4 0 -12 2q-18 8 -18 28v142h-209q-16 0 -27 11t-11 27v180q0 16 11 26.5t27 10.5h209v143q0 20 18 28q19 7 33 -7l270 -270v0zM675 750q31 0 58 -12t47.5 -32t32.5 -47.5t12 -58.5v-450q0 -31 -12 -58 t-32.5 -47.5t-47.5 -32.5t-58 -12h-225v94h225q23 0 39.5 16.5t16.5 39.5v450q0 23 -16.5 39.5t-39.5 16.5h-225v94h225v0z" />
<glyph unicode="&#xf091;" horiz-adv-x="825" d="M750 562h-128q-6 -46 -15.5 -92.5t-21.5 -85.5q38 12 68.5 29t52 35t33 34.5t11.5 26.5v53zM240 384q-12 39 -21.5 85.5t-16.5 92.5h-127v-53q0 -10 11.5 -26.5t33 -34.5t52 -35t68.5 -29zM825 509q0 -31 -22 -64t-59.5 -62.5t-88 -52t-108.5 -31.5q-25 -5 -44.5 -20.5 t-19.5 -34.5q0 -17 8.5 -25t19 -15t19.5 -15.5t11 -25.5q2 -11 -1 -23q-2 -7 11.5 -11.5t33 -9t40 -11t31.5 -16.5q6 -5 9.5 -19.5t4.5 -31.5q1 -16 -3 -28.5t-14 -12.5h-481q-10 0 -14 12.5t-3 28.5q1 17 4.5 31.5t9.5 19.5q11 10 31 16.5t39.5 11t33.5 9t12 11.5t-2 12.5 v10.5q1 17 10.5 25.5t20.5 15.5t19.5 15t8.5 25q0 19 -19.5 34.5t-45.5 20.5q-57 10 -107.5 32.5t-88 51.5t-59.5 62t-22 64v91q0 16 11 26.5t27 10.5h158q-1 6 -1 12.5v11.5v2q0 26 2 43t7.5 26.5t15.5 13.5t27 4h331q16 0 26.5 -4t16 -13.5t7.5 -26.5t2 -43v-12.5 t-1 -13.5h158q16 0 27 -10.5t11 -26.5v-91v0z" />
<glyph unicode="&#xf092;" horiz-adv-x="750" d="M460 357q46 0 78 -21.5t32 -71.5q0 -40 -19 -64t-48 -37t-63 -17t-65 -4t-65.5 4t-63 17t-47.5 37t-19 64q0 50 32 71.5t78 21.5q21 0 42.5 -1.5t42.5 -1.5t42.5 1.5t42.5 1.5zM470 210q16 0 27 16t11 39t-11 38.5t-27 15.5t-27 -15.5t-11 -38.5t11 -39t27 -16zM280 210 q16 0 27 16t11 39t-11 38.5t-27 15.5t-27 -15.5t-11 -38.5t11 -39t27 -16zM375 110q88 0 142.5 16.5t85.5 45t42 67t11 82.5q0 73 -46 127q4 16 5 36t-1.5 39t-7.5 36t-12 29h-14q-42 -2 -74 -22t-63 -37l-7.5 0.5t-18 1.5t-22 1.5t-20.5 0.5q-18 0 -35 -1t-33 -3 q-31 17 -63 37t-74 22h-14q-8 -12 -12.5 -29t-7 -36t-1.5 -39t5 -36q-46 -54 -46 -127q0 -44 11 -82.5t41.5 -67t85.5 -45t143 -16.5zM656 750q39 0 66.5 -27.5t27.5 -66.5v-562q0 -20 -7.5 -37t-20 -29.5t-30 -20t-36.5 -7.5h-562q-39 0 -66.5 27.5t-27.5 66.5v562 q0 19 7.5 36.5t20 30t29.5 20t37 7.5h562v0z" />
<glyph unicode="&#xf093;" d="M724 492q11 -11 7.5 -18.5t-18.5 -7.5h-150v-244q0 -16 -11 -27t-27 -11h-150q-16 0 -26.5 11t-10.5 27v244h-150q-16 0 -19 7.5t8 18.5l246 247q11 11 27 11t27 -11zM881 338q8 0 13.5 -5.5t5.5 -13.5v-300q0 -19 -19 -19h-862q-19 0 -19 19v300q0 8 5.5 13.5t13.5 5.5 h112q8 0 13.5 -5.5t5.5 -13.5v-169h600v169q0 8 5.5 13.5t13.5 5.5h112v0z" />
<glyph unicode="&#xf094;" horiz-adv-x="786" d="M451 750q29 0 55 -4.5t52 -9.5q20 -4 41.5 -7.5t45.5 -3.5h1q14 0 30.5 2.5t32.5 2.5q12 0 22 -3t16 -12q11 -15 12.5 -35t-0.5 -37t-4 -34.5t1 -35.5q2 -11 5.5 -19t7.5 -18q4 -9 5.5 -19.5t3.5 -20.5q9 -51 7.5 -95.5t-11.5 -83t-27.5 -72.5t-39.5 -65 q-18 -24 -38.5 -47.5t-45 -44.5t-54 -38t-65.5 -29q-37 -13 -77.5 -16.5t-77.5 -5.5h-15q-51 0 -95 8t-94 8h-2q-17 0 -37.5 -5t-40.5 -6h-1q-18 0 -32 8.5t-21 20.5q-10 17 -8.5 35.5t6.5 33.5t5 32.5t-2.5 37t-6 39.5t-4.5 40q-1 17 0.5 33.5t3.5 36.5q2 17 3.5 35t4.5 32 q7 32 15 62.5t22 57.5q10 20 22 39.5t26 38.5q5 7 10.5 12t11.5 10l22 22t24 21t28 18t32 16q16 8 33 14.5t35 13.5q34 14 76 25l1 1q22 6 41.5 8.5t38.5 2.5z" />
<glyph unicode="&#xf095;" horiz-adv-x="780" d="M593 269q5 0 25 -11t43.5 -24.5t45.5 -27t30 -17.5q8 -5 22.5 -12.5t19.5 -17.5q1 -3 1 -11t-1.5 -18t-4 -21t-6 -21t-6.5 -17q-9 -19 -29 -35t-45 -27t-51 -17.5t-45 -6.5q-39 0 -75 12.5t-71 26.5q-60 22 -113.5 57.5t-99.5 80t-85.5 96t-70.5 105.5q-12 20 -25.5 46.5 t-25 54.5t-19 55.5t-7.5 51.5q0 27 7 56t21 55.5t33.5 48t45.5 33.5q6 -1 13 0t13 1q5 0 14.5 -0.5t19.5 -1t19 -2t13 -3.5q4 -3 7.5 -9t6 -13t4.5 -14.5t4 -12.5q3 -9 11.5 -32t17.5 -47.5t16 -45.5t7 -26q0 -18 -12 -33t-26.5 -28t-26.5 -24.5t-12 -22.5q0 -10 8 -24 t13 -22q41 -71 92 -121.5t123 -91.5q9 -5 22.5 -13.5t24.5 -8.5t25.5 15.5t29.5 34.5t30.5 34.5t28.5 15.5z" />
<glyph unicode="&#xf096;" d="M675 750q31 0 58 -12t47.5 -32.5t32.5 -47.5t12 -58v-450q0 -31 -12 -58t-32.5 -47.5t-47.5 -32.5t-58 -12h-525q-31 0 -58 12t-47.5 32.5t-32.5 47.5t-12 58v450q0 31 12 58t32.5 47.5t47.5 32.5t58 12h525v0zM675 656h-525q-23 0 -39.5 -16.5t-16.5 -39.5v-450 q0 -23 16.5 -39.5t39.5 -16.5h525q23 0 39.5 16.5t16.5 39.5v450q0 23 -16.5 39.5t-39.5 16.5z" />
<glyph unicode="&#xf097;" horiz-adv-x="612" d="M556 750q23 0 39.5 -16.5t16.5 -39.5v-653q0 -23 -16.5 -39.5t-39.5 -16.5t-39 16l-211 211l-211 -211q-16 -16 -39 -16t-39.5 16.5t-16.5 39.5v653q0 23 16.5 39.5t39.5 16.5h500v0zM115 635v-452l191 192l191 -192v452h-382z" />
<glyph unicode="&#xf098;" horiz-adv-x="750" d="M644 156q2 4 4.5 13t4.5 18.5t3 18.5t-1 14q-2 6 -12 11t-18 10l-35 20t-33 19q-8 5 -17.5 11.5t-18.5 6.5q-11 0 -22.5 -13.5t-18.5 -21.5l-18 -21t-23 -15q-7 -1 -16 5t-18 11q-52 29 -89 66.5t-66 86.5q-5 8 -10.5 18.5t-3.5 18.5q1 9 12 16.5t17 14.5q7 8 15.5 18 t9.5 21q2 8 -2.5 18.5t-7.5 20.5q-8 21 -14 37t-13 37q-3 8 -6 20t-10 15q-4 2 -13 3.5t-19 2t-18.5 0t-11.5 -0.5h-4q-16 -8 -30.5 -22.5t-25 -34t-16.5 -43t-5 -48.5q1 -17 7.5 -37.5t14.5 -38.5t16.5 -35t16.5 -31q36 -63 86 -117.5t110 -92.5q15 -9 33 -18t37 -16 q20 -8 40.5 -15.5t39.5 -10.5q31 -5 55 1t44 17q13 6 28 16.5t22 25.5zM656 750q39 0 66.5 -27.5t27.5 -66.5v-562q0 -20 -7.5 -37t-20 -29.5t-30 -20t-36.5 -7.5h-562q-39 0 -66.5 27.5t-27.5 66.5v562q0 19 7.5 36.5t20 30t29.5 20t37 7.5h562v0z" />
<glyph unicode="&#xf099;" d="M870 365q11 2 20.5 -3.5t9.5 -18.5q0 -14 -13 -24.5t-30 -18.5t-35.5 -12.5t-28.5 -5.5q-21 -68 -65 -120t-102.5 -87t-126 -53.5t-134.5 -18.5q-107 0 -202.5 45.5t-158.5 133.5q-4 8 -4 13q0 10 6.5 16.5t16.5 6.5q7 0 15 -6q60 -53 140 -53q29 0 57.5 7.5t52.5 23.5 q-14 8 -23 20.5t-9 28.5q0 11 4 19q-9 3 -22 10t-25 16.5t-20 21t-8 22.5q0 8 5 14t12 11q-20 12 -37 36t-17 48q0 16 16 21q-17 17 -27 39.5t-10 46.5q0 11 4.5 20t18.5 9q9 0 41 -13t69.5 -29.5t71.5 -33t48 -23.5q12 -7 23 -15.5t22 -17.5q10 25 23 52t29 52t35.5 47 t43.5 36q4 3 12 3q9 0 13 -4q8 3 20.5 6.5t20.5 3.5q14 0 21 -13q15 0 27.5 -7.5t12.5 -24.5q0 -15 -13 -26q47 -21 78 -61t44 -89q3 -1 11 -1q23 0 43 8t28 8q9 0 15.5 -7t6.5 -16q0 -11 -9.5 -23.5t-16.5 -19.5z" />
<glyph unicode="&#xf09a;" horiz-adv-x="386" d="M282 624q-26 0 -32 -8t-6 -33v-43h109q7 0 14 -7q5 -5 5 -14l-8 -100q0 -8 -5.5 -12.5t-13.5 -4.5h-101v-383q0 -8 -5.5 -13.5t-13.5 -5.5h-126q-8 0 -13.5 5.5t-5.5 13.5v383h-61q-8 0 -13.5 5.5t-5.5 13.5v99q0 8 5.5 14t13.5 6h61v50q0 175 179 175q60 0 113 -15 q16 -5 14 -21l-13 -97q-2 -8 -8 -13q-8 -5 -15 -3q-17 4 -35.5 6t-32.5 2z" />
<glyph unicode="&#xf09b;" horiz-adv-x="902" d="M241 256q0 32 13 55t32 23t32.5 -23t13.5 -55t-13.5 -55t-32.5 -23t-32 23t-13 55zM661 256q0 32 -13 55t-32 23t-32.5 -23t-13.5 -55t13.5 -55t32.5 -23t32 23t13 55zM480 180q0 6 -8.5 10.5t-20.5 4.5t-20.5 -4.5t-8.5 -10.5t8.5 -10.5t20.5 -4.5t20.5 4.5t8.5 10.5z M451 75q-21 0 -38 14t-25 37q-3 8 6 12q8 3 12 -6q13 -37 45 -37q15 0 27.5 10t17.5 27q4 10 13 6q8 -3 6 -12q-8 -23 -25 -37t-39 -14zM902 363q0 -114 -32.5 -187.5t-92 -115.5t-142.5 -58.5t-184 -16.5t-184.5 16.5t-142.5 58.5t-91.5 115.5t-32.5 187.5q0 56 18 108.5 t55 94.5l-1 2l1 1q-8 19 -10.5 39.5t-2.5 41.5q0 12 1 27.5t4 32t7.5 31t11.5 24.5h4q30 0 54 -6t46 -17t42.5 -25.5t44.5 -29.5q42 12 87 16t89 4t89 -4t88 -16q23 15 44 29.5t42.5 25.5t45.5 17t54 6h5q6 -10 10.5 -24.5t7.5 -31t4.5 -32t1.5 -27.5q0 -21 -3 -41.5 t-10 -39.5v-1l-1 -2q37 -42 55 -94.5t18 -108.5zM605 404q-38 0 -76.5 -3.5t-76.5 -3.5t-76.5 3.5t-76.5 3.5q-79 0 -128 -42.5t-49 -125.5q0 -71 31.5 -109.5t80.5 -56.5t107 -21t111 -3q36 0 74.5 1t75 6t69.5 16.5t57.5 33t39 54.5t14.5 81q0 41 -13 72t-36.5 52 t-56 31.5t-71.5 10.5z" />
<glyph unicode="&#xf09c;" horiz-adv-x="918" d="M339 219q14 9 23 24t9 32q0 27 -19 46.5t-46 19.5t-46 -19.5t-19 -46.5q0 -17 9 -32t23 -23l-32 -140h130zM650 765q55 0 104 -21t85.5 -57.5t57.5 -85.5t21 -104v-74q0 -16 -11 -27t-27 -11h-39q-16 0 -27 11t-11 27v74q0 32 -12 60t-32.5 48.5t-48.5 32.5t-60 12 t-59.5 -12t-48.5 -32.5t-33 -48.5t-12 -60v-76h58q23 0 40 -17t17 -41v-306q0 -23 -17 -40t-40 -17h-498q-23 0 -40 17t-17 40v306q0 24 17 41t40 17h325v76q0 55 21 104t57.5 85.5t85.5 57.5t104 21z" />
<glyph unicode="&#xf09d;" d="M548 122h-218v56h218v-56zM277 122h-150v56h150v-56zM825 675h-750v-131h750v131zM825 356h-750v-281h750v281zM825 750q31 0 53 -22t22 -53v-600q0 -31 -22 -53t-53 -22h-750q-31 0 -53 22t-22 53v600q0 31 22 53t53 22h750v0z" />
<glyph unicode="&#xf09e;" horiz-adv-x="765" d="M115 230q24 0 44.5 -9t36.5 -25t25 -36.5t9 -44.5t-9 -45t-25 -36.5t-36.5 -24.5t-44.5 -9t-45 9t-36.5 24.5t-24.5 36.5t-9 45t9 44.5t24.5 36.5t36.5 25t45 9zM41 515q94 -7 177 -46.5t147 -103.5t103.5 -147t46.5 -177q2 -17 -10 -29q-11 -12 -28 -12h-77 q-14 0 -25 10t-13 25q-6 65 -33.5 122t-71 100.5t-100.5 71t-122 33.5q-15 2 -25 13t-10 25v77q0 17 12 28q11 11 26 11q1 0 1.5 -0.5t1.5 -0.5zM40 765q147 -8 276 -67t226 -156t156 -226t67 -276q2 -15 -11 -28q-11 -12 -27 -12h-77q-15 0 -26 10.5t-12 25.5 q-7 116 -54 218t-124.5 179.5t-179.5 124.5t-218 54q-15 1 -25.5 12t-10.5 26v77q0 16 12 27q11 11 26 11h2v0z" />
<glyph unicode="&#xf0a0;" d="M788 150q15 0 26 11t11 27q0 15 -11 26t-26 11q-16 0 -27 -11t-11 -26q0 -16 11 -27t27 -11zM675 150q16 0 27 11t11 27q0 15 -11 26t-27 11t-26.5 -11t-10.5 -26q0 -16 10.5 -27t26.5 -11zM825 300q31 0 53 -22t22 -53v-150q0 -31 -22 -53t-53 -22h-750q-31 0 -53 22 t-22 53v150q0 31 22 53t53 22h750v0zM75 375q-31 0 -58 -12l114 336q8 23 27.5 37t43.5 14h496q24 0 43.5 -14t27.5 -37l114 -336q-27 12 -58 12h-750z" />
<glyph unicode="&#xf0a1;" d="M769 651q-37 -29 -81 -55.5t-93 -48t-100 -38t-101 -23.5v-124q50 -8 101 -24t100 -38t93.5 -48.5t80.5 -54.5v454zM900 424q0 -26 -16 -45.5t-40 -25.5v-180q0 -31 -22 -53t-53 -22q-33 33 -80 64.5t-101 57.5t-111 44.5t-111 24.5q-21 -6 -34 -19.5t-18 -30.5t-1 -34.5 t18 -31.5q-12 -20 -11 -37t10 -32.5t24 -30t32 -28.5q-10 -21 -34 -32t-51.5 -12.5t-54 5t-41.5 21.5q-9 30 -19.5 61t-17.5 63.5t-7 67.5t12 74h-98q-31 0 -53 22t-22 53v112q0 31 22 53t53 22h244q56 0 119.5 16.5t124.5 44t115 62.5t91 72q31 0 53 -22t22 -53v-180 q24 -6 40 -25.5t16 -45.5z" />
<glyph unicode="&#xf0a2;" horiz-adv-x="780" d="M390 -15q-24 0 -45.5 9t-37.5 25t-25 37.5t-9 45.5h234q0 -24 -9 -45.5t-25 -37.5t-37.5 -25t-45.5 -9zM597 622q3 -66 17.5 -115.5t38.5 -88t56 -69.5t71 -60v-74q0 -31 -23 -52.5t-55 -21.5h-624q-32 0 -55 21.5t-23 52.5v74q38 28 70.5 59t56.5 70t39 88.5t17 115.5 q1 30 17.5 56t44.5 45.5t65 30.5t80 11t80.5 -11t65.5 -30.5t44.5 -45.5t16.5 -56z" />
<glyph unicode="&#xf0a3;" horiz-adv-x="780" d="M769 307q11 -11 11 -27q0 -12 -8 -22t-20 -13l-95 -24q3 -9 7.5 -23.5t9 -29.5t8 -29t3.5 -23q0 -14 -10.5 -25t-25.5 -11q-9 0 -23 3.5t-29 8t-29.5 9t-23.5 7.5l-24 -95q-3 -12 -13 -20t-22 -8q-16 0 -27 11l-68 70l-69 -70q-9 -11 -26 -11q-12 0 -22 8t-13 20l-24 95 q-9 -3 -23.5 -7.5t-29.5 -9t-29 -8t-23 -3.5q-15 0 -25.5 11t-10.5 25q0 9 3.5 23t8 29t9 29.5t7.5 23.5l-95 24q-12 3 -20 13t-8 22q0 16 11 27l70 68l-70 68q-11 11 -11 27q0 12 8 22t20 13l95 24q-3 9 -7.5 23.5t-9 29.5t-8 29t-3.5 23q0 15 10.5 25.5t25.5 10.5 q9 0 23 -3.5t29 -8t29.5 -9t23.5 -7.5l24 95q3 12 13 20t22 8q17 0 26 -11l69 -70l68 70q11 11 26 11q13 0 23 -7.5t13 -20.5l24 -95q9 3 23.5 7.5t29.5 9t29 8t23 3.5q14 0 25 -10.5t11 -25.5q0 -9 -3.5 -23t-8 -29t-9 -29.5t-7.5 -23.5l95 -24q12 -3 20 -13t8 -22 q0 -16 -11 -27l-71 -68z" />
<glyph unicode="&#xf0a4;" horiz-adv-x="936" d="M646 345q44 0 87 0.5t87 0.5q25 0 41 15t16 40q0 26 -16 41.5t-41 15.5q-84 0 -166 0.5t-165 0.5q0 20 8 38t17 36.5t16.5 38.5t7.5 44q0 16 -5 32t-14 29t-22.5 21.5t-31.5 8.5h-5.5t-5.5 -1q-4 -2 -4.5 -4l-1.5 -6q-6 -29 -11 -60.5t-19 -57.5q-14 -25 -35.5 -43 t-41.5 -38q-14 -15 -24 -27.5t-20.5 -23.5t-23.5 -20.5t-32 -17.5h-2v-314q34 0 66.5 -8t65 -17t65 -17t67.5 -8q21 0 41 4t35 13.5t24.5 25.5t9.5 40q0 7 -0.5 13t-1.5 12q17 8 26 26t9 36q0 19 -10 33q29 24 29 60q0 11 -6 21t-13 17zM153 96q16 0 27.5 11t11.5 28 q0 16 -11.5 27.5t-27.5 11.5q-17 0 -28 -11.5t-11 -27.5q0 -17 11 -28t28 -11zM636 517l184 -1q24 0 45.5 -8.5t37 -24t24.5 -36.5t9 -46q0 -24 -9 -45t-24.5 -36.5t-37 -24t-45.5 -8.5h-98q-5 -29 -19 -52q5 -29 -3.5 -57.5t-27.5 -50.5q0 -37 -14 -64t-37 -44t-53.5 -25.5 t-64.5 -8.5q-38 0 -72.5 8t-66.5 17.5t-62.5 17.5t-60.5 8h-183q-24 0 -41 17t-17 41v314q0 24 17 41t41 17h170q13 7 20.5 15t16.5 19q8 10 16.5 19t16.5 18q17 17 37.5 33.5t31.5 36.5q12 21 14.5 48.5t8.5 52t21.5 41t53.5 16.5q30 0 54.5 -12.5t41.5 -33.5t26.5 -48 t9.5 -55q0 -26 -7.5 -51t-18.5 -48h65z" />
<glyph unicode="&#xf0a5;" horiz-adv-x="936" d="M365 517q-11 23 -18.5 48t-7.5 51q0 28 9.5 55t26.5 48t41.5 33.5t54.5 12.5q38 0 53.5 -16.5t21.5 -41t8.5 -52t14.5 -48.5q11 -20 31.5 -36.5t37.5 -33.5q8 -9 16.5 -18t16.5 -19q9 -11 16.5 -19t20.5 -15h170q24 0 41 -17t17 -41v-314q0 -24 -17 -41t-41 -17h-183 q-30 0 -60.5 -8t-62.5 -17.5t-66.5 -17.5t-72.5 -8q-34 0 -64.5 8.5t-53.5 25.5t-37 44t-14 64q-19 22 -27.5 50.5t-3.5 57.5q-14 23 -19 52h-98q-24 0 -45.5 8.5t-37 24t-24.5 36.5t-9 45q0 25 9 46t24.5 36.5t37 24t45.5 8.5l184 1h65zM783 96q17 0 28 11t11 28 q0 16 -11 27.5t-28 11.5q-16 0 -27.5 -11.5t-11.5 -27.5q0 -17 11.5 -28t27.5 -11zM290 345q-7 -7 -13 -17t-6 -21q0 -36 29 -60q-10 -14 -10 -33q0 -18 9 -36t26 -26q-1 -6 -1.5 -12t-0.5 -13q0 -24 9.5 -40t24.5 -25.5t35 -13.5t41 -4q34 0 67 8t65.5 17t65 17t66.5 8v314 h-2q-20 8 -32.5 17.5t-23 20.5t-20.5 23.5t-24 27.5q-20 20 -41.5 38t-35.5 43q-14 26 -19 57.5t-11 60.5l-1.5 6t-4.5 4q-2 1 -5.5 1h-5.5q-18 0 -31.5 -8.5t-22.5 -21.5t-14 -29t-5 -32q0 -24 7.5 -44t16.5 -38.5t17 -36.5t8 -38q-83 0 -165 -0.5t-166 -0.5 q-25 0 -41 -15.5t-16 -41.5q0 -25 16 -40t41 -15q44 0 87 -0.5t87 -0.5z" />
<glyph unicode="&#xf0a6;" horiz-adv-x="780" d="M420 475q0 44 -0.5 87t-0.5 87q0 25 -15 41t-40 16q-26 0 -41.5 -16t-15.5 -41q0 -84 -0.5 -166t-0.5 -165q-20 0 -38 8t-36.5 17t-38.5 16.5t-44 7.5q-16 0 -32 -5t-29 -14t-21 -22.5t-8 -31.5q0 -2 -0.5 -5.5t0.5 -5.5q2 -4 4 -4.5l6 -1.5q29 -6 60.5 -11t57.5 -19 q25 -14 43 -35.5t38 -41.5q15 -14 27.5 -24t23.5 -20.5t20.5 -23.5t17.5 -32v-2h314q0 34 8 66.5t17 65t17 65t8 67.5q0 21 -4 41t-13.5 35t-25.5 24.5t-40 9.5q-7 0 -13 -0.5t-12 -1.5q-8 17 -26 26t-36 9q-19 0 -33 -10q-24 29 -60 29q-11 0 -21 -6t-17 -13zM669 -18 q0 16 -11 27.5t-28 11.5q-16 0 -27.5 -11.5t-11.5 -27.5q0 -17 11.5 -28t27.5 -11q17 0 28 11t11 28zM248 465l1 184q0 24 8.5 45.5t24 37t36.5 24.5t46 9q24 0 45 -9t36.5 -24.5t24 -37t8.5 -45.5v-98q29 -5 52 -19q29 5 57.5 -3.5t50.5 -27.5q37 0 64 -14t44 -37 t25.5 -53.5t8.5 -64.5q0 -38 -8 -72.5t-17.5 -66.5t-17.5 -62.5t-8 -60.5v-183q0 -24 -17 -41t-41 -17h-314q-24 0 -41 17t-17 41v170q-7 13 -15 20.5t-19 16.5q-10 8 -19 16.5t-18 16.5q-17 17 -33.5 37.5t-36.5 31.5q-21 12 -48.5 14.5t-52 8.5t-41 21.5t-16.5 53.5 q0 30 12.5 54.5t33.5 41.5t48 26.5t55 9.5q26 0 51 -7.5t48 -18.5v65z" />
<glyph unicode="&#xf0a7;" horiz-adv-x="780" d="M248 179q-23 -11 -48 -18.5t-51 -7.5q-28 0 -55 9.5t-48 26.5t-33.5 41.5t-12.5 54.5q0 38 16.5 53.5t41 21.5t52 8.5t48.5 14.5q20 11 36.5 31.5t33.5 37.5q9 8 18 16.5t19 16.5q11 9 19 16.5t15 20.5v170q0 24 17 41t41 17h314q24 0 41 -17t17 -41v-183q0 -30 8 -60.5 t17.5 -62.5t17.5 -66.5t8 -72.5q0 -34 -8.5 -64.5t-25.5 -53.5t-44 -37t-64 -14q-22 -19 -50.5 -27.5t-57.5 -3.5q-23 -14 -52 -19v-98q0 -24 -8.5 -45.5t-24 -37t-36.5 -24.5t-45 -9q-25 0 -46 9t-36.5 24.5t-24 37t-8.5 45.5l-1 184v65zM669 597q0 17 -11 28t-28 11 q-16 0 -27.5 -11t-11.5 -28q0 -16 11.5 -27.5t27.5 -11.5q17 0 28 11.5t11 27.5zM420 104q7 -7 17 -13t21 -6q36 0 60 29q14 -10 33 -10q18 0 36 9t26 26q6 -1 12 -1.5t13 -0.5q24 0 40 9.5t25.5 24.5t13.5 35t4 41q0 34 -8 67t-17 65.5t-17 65t-8 66.5h-314v-2 q-8 -20 -17.5 -32.5t-20.5 -23t-23.5 -20.5t-27.5 -24q-20 -20 -38 -41.5t-43 -35.5q-26 -14 -57.5 -19t-60.5 -11l-6 -1.5t-4 -4.5q-1 -2 -0.5 -5.5t0.5 -5.5q0 -18 8 -31.5t21 -22.5t29 -14t32 -5q24 0 44 7.5t38.5 16.5t36.5 17t38 8q0 -83 0.5 -165t0.5 -166 q0 -25 15.5 -41t41.5 -16q25 0 40 16t15 41q0 44 0.5 87t0.5 87z" />
<glyph unicode="&#xf0a8;" horiz-adv-x="780" d="M414 638q-10 10 -23.5 10t-24.5 -10l-239 -239q-10 -10 -10 -24t10 -24l239 -239q10 -10 24 -10t24 10l36 36q10 10 10 23.5t-10 24.5l-120 120h299q14 0 24 9.5t10 23.5v51q0 14 -10 24t-24 10h-299l120 120q10 10 10 24t-10 24l-36 36v0zM0 375q0 81 30.5 152t83.5 124 t124 83.5t152 30.5t152 -30.5t124 -83.5t83.5 -124t30.5 -152t-30.5 -152t-83.5 -124t-124 -83.5t-152 -30.5t-152 30.5t-124 83.5t-83.5 124t-30.5 152z" />
<glyph unicode="&#xf0a9;" horiz-adv-x="780" d="M366 112q10 -10 23.5 -10t24.5 10l239 239q10 10 10 24t-10 24l-239 239q-10 10 -24 10t-24 -10l-36 -36q-10 -10 -10 -23.5t10 -24.5l120 -120h-299q-14 0 -24 -9.5t-10 -23.5v-51q0 -14 10 -24t24 -10h299l-120 -120q-10 -10 -10 -24t10 -24l36 -36v0zM780 375 q0 -81 -30.5 -152t-83.5 -124t-124 -83.5t-152 -30.5t-152 30.5t-124 83.5t-83.5 124t-30.5 152t30.5 152t83.5 124t124 83.5t152 30.5t152 -30.5t124 -83.5t83.5 -124t30.5 -152z" />
<glyph unicode="&#xf0aa;" horiz-adv-x="780" d="M653 351q10 10 10 23.5t-10 24.5l-239 239q-10 10 -24 10t-24 -10l-239 -239q-10 -10 -10 -24t10 -24l36 -36q10 -10 23.5 -10t24.5 10l120 120v-299q0 -14 9.5 -24t23.5 -10h51q14 0 24 10t10 24v299l120 -120q10 -10 24 -10t24 10l36 36v0zM390 765q81 0 152 -30.5 t124 -83.5t83.5 -124t30.5 -152t-30.5 -152t-83.5 -124t-124 -83.5t-152 -30.5t-152 30.5t-124 83.5t-83.5 124t-30.5 152t30.5 152t83.5 124t124 83.5t152 30.5z" />
<glyph unicode="&#xf0ab;" horiz-adv-x="780" d="M127 399q-10 -10 -10 -23.5t10 -24.5l239 -239q10 -10 24 -10t24 10l239 239q10 10 10 24t-10 24l-36 36q-10 10 -23.5 10t-24.5 -10l-120 -120v299q0 14 -9.5 24t-23.5 10h-51q-14 0 -24 -10t-10 -24v-299l-120 120q-10 10 -24 10t-24 -10l-36 -36v0zM390 -15 q-81 0 -152 30.5t-124 83.5t-83.5 124t-30.5 152t30.5 152t83.5 124t124 83.5t152 30.5t152 -30.5t124 -83.5t83.5 -124t30.5 -152t-30.5 -152t-83.5 -124t-124 -83.5t-152 -30.5z" />
<glyph unicode="&#xf0ac;" horiz-adv-x="780" d="M450 30q56 10 106 36.5t89 68.5h-1q-4 -2 -7 0l-2 -2l-6 2h-2l-2 -4l1 4q-3 4 -7 7l-2 1q-2 0 -2 -4q1 8 -4 13.5t-13 5.5q0 -1 -1 -1h-2l-2 2h3l2 6l-5 4l-1 -1q-7 1 -10 8l-2 1l-1 -1l-2 -1q-6 -2 -10 -4q-6 2 -9 5l-13 -1q0 3 -2 6t-6 3q-5 0 -10 -1t-7 -6q0 -2 1 -4 t2 -3v-4l-1 -3l-2 -1h-1l-3 8l3 5q-1 2 -1 5t-1 5l-1 2h-3l-7 -5h-4l-2 -2q-1 -1 -1 -2t-1 -1l-1 1h-4q-4 -4 -4 -9l1 -2l-4 -3l-1 -2l-3 -2q0 -1 -0.5 -1t-0.5 -1v-1v-4l-1 -1v2l-1 1q-1 6 -11 10h-3v-2q1 -3 4 -5t5 -4q-1 1 -2.5 0.5t-1.5 -1.5v-2l7 -10v-19l2 -5 q-2 -8 -8 -13v1l-2 -1l-1 -1l-1 -5l1 -1v-1l-2 2l-1 -6l-6 -2q-3 -2 -2.5 -5.5t-2.5 -5.5l1 -2l-3 -3q0 -2 -0.5 -3t-0.5 -3l1 -7l3 -2l2 2l1 3l1 -6q0 -2 -2 -4q-3 -2 -6 -4.5t-3 -7.5q0 -2 1.5 -4.5t1.5 -4.5t-1 -3zM233 684q-17 -1 -38 -16t-41 -35t-37 -41t-26 -35h2 q2 0 6 1.5t4 -4.5q0 -2 -1.5 -5t5.5 -3q2 0 2.5 3t1.5 0l2 -8v-1q0 -2 -2.5 -3t-1.5 -3q2 -2 4.5 -2h4.5l2 1l1 1q0 -3 3 -4t5 -1h1q0 -1 -2 -2t0 -3l11 -2v-1l7 -14q0 -2 -1.5 -5t-3.5 -3t-1.5 1.5t0.5 3.5t-1 3.5t-7 1.5q-1 0 -2.5 -0.5t-0.5 -2.5l6 -13l1 -1l1 -1 q-5 0 -6.5 -11.5t-1.5 -16.5l2 -9l1 -3v-2l-2 -9l14 -21h3q1 -2 -1 -4t-1 -4l4 -4q0 -5 2 -7l6 -6q-1 -6 10 -11t14 -7q4 -11 10 -22t14 -19l1 -7q0 -1 -2.5 -2t-0.5 -3l8 -3q2 2 5 -4t5 -8l-1 -3l6 -8l3 -1l2 4q-2 5 -7 13t-10 15.5t-8.5 13.5t-3.5 7t-1 8t-2 8 q3 -2 7.5 -3.5t7.5 -3.5q2 -12 9.5 -19.5t13.5 -16.5q-2 -2 0 -2.5t3 -0.5q2 -2 2 -7q7 -8 18 -21.5t11 -21.5v-1l-2 -7q3 -8 10 -12.5t14 -7.5h2q10 -5 20 -10.5t21 -9.5l11 7q4 -1 8.5 -5t10 -9t13 -9.5t17.5 -5.5q7 5 7 -2v-2l12 -15l2 -7q5 -3 10 -7.5t8 -9.5h2 q5 0 8 -4.5t8 -4.5q3 0 3 3q0 7 1 9t2.5 2.5t3 0.5t1.5 2l-2 3q-2 0 -3 -2.5t-3 -0.5l-7 -4l-8 2l-12 20l4 28q1 2 -3.5 4.5t-2.5 4.5q-7 4 -17 4q-2 0 -10 -1.5t-8 1.5t1.5 8t3.5 10.5t3 9.5t1 5l6 13l-1 2l-8 2q-2 0 -6.5 -3t-8.5 -7t-7 -8t-3 -7l-22 -5q-7 0 -11 6 q-2 8 -8.5 17.5t-6.5 16.5q0 11 4 21t-3 21q1 0 2.5 1t0.5 3l6 7l1 1l1 -1q7 5 18 3.5t14 6.5l8 -6q2 -1 4.5 2t2.5 5l-4 2l19 5l1 -3l9 1l11 -7q2 0 4 2.5t4 0.5l10 -10q-2 -4 -0.5 -6t1.5 -4q0 -3 5 -13.5t9 -10.5q5 0 4.5 6.5t-0.5 8.5q0 10 -4 19t-7 19v3q0 5 6 8.5 t6 4.5q5 4 11 8t9 9l4 8v5h3t2 3q0 1 -1.5 1.5t-3.5 2.5q-2 1 -4 3l3 2q2 3 3 7.5t-1 7.5l7 4q-1 -3 2 -4t5 0l5 8q-2 5 -2.5 3.5t2.5 3.5q5 2 9.5 4.5t9.5 2.5q1 -1 2 -1q3 0 3 1q0 5 -2 6l6 12q7 0 10 6l9 1q3 1 3 4v1l17 5l2 5l-5 7q1 0 1 2t-2 3t-3.5 2t-3.5 2l-2 -1 l2 1h3h6.5t4.5 4q0 6 -7 6q-9 0 -20.5 -4t-15.5 -14l-7 -4l9 9l1 3q0 2 -4.5 2.5t-2.5 0.5q9 0 13.5 2t7.5 4.5l6 5t9 4.5q11 -2 21.5 -1t21.5 1l6 4t4 5l11 2q2 -2 6 1t4 5q0 5 -5.5 6.5t-5.5 6.5q0 1 0.5 3t-1.5 2q-3 0 -9.5 -3t-9.5 -5q-2 -1 -2.5 0.5t-0.5 3.5l1 -1l4 2 l11 4l2 2q0 3 -3.5 4t-5.5 1t-6 -1.5t-4 1.5l1 2q-6 5 -10.5 11t-4.5 8t0.5 4t-2.5 2q-2 0 -3.5 -0.5t-1.5 2.5q0 2 -2.5 8.5t-6.5 6.5l-4 -4q0 -3 -3 -4.5t-3 -3.5h-2l-10 -6q-1 2 -2.5 1t-3.5 -1h-1l-1 -1q4 0 3.5 4.5t-3.5 4.5l-8 -2q-2 0 -2 0.5t1 2t2 3.5t0 4t-3 0.5 t-2 0.5h3l2 2q1 1 -0.5 3.5t-2.5 3.5l-11 2l-7 6q-1 -1 -3.5 1.5t-4.5 3.5l-8 -3l-19 4q-2 0 -4 -1t-2 -3t2 -3t2 -3t1.5 -10.5t-2.5 -6.5l-5 -7q1 -2 3.5 -3.5t5 -3.5t4.5 -5t1 -9l-22 -15v-2q0 -4 2 -7.5t4 -8.5q5 -2 4.5 -3.5t-3.5 -3l-6 -3t-3 -2.5t-2 -1h-4h-2 q0 1 1 1.5t1 2.5l-9 6v-1l-4 8q2 5 0.5 7t-1.5 5q0 8 -7 8t-15 -2q2 1 -0.5 3t-3.5 2q-8 0 -18.5 7t-17.5 7q-3 0 -7 -1t-7 -2q2 1 2 5l-6 11l-1 1q-3 0 -7 -2.5t-4 4.5q0 1 1 2t0 2q-1 6 2.5 10t5.5 9q2 2 2 4t2 2q4 0 7.5 2t8.5 3l1 3q0 2 -10.5 3.5t-10.5 3.5l1 1 q10 -3 15 -3.5t8.5 1t8 4t14.5 6.5q0 2 -10.5 4t-13.5 4h6q2 0 5 -1t5 -2q0 -2 3 -2.5t5 -0.5l7 5v3l-2 3l11 2q-1 1 0.5 2t2.5 1q3 0 6 -3t4 -3l10 4q-1 1 2.5 1.5t2.5 2.5l-7 8q-1 0 -1.5 1.5t0.5 1.5q5 0 3 5q-4 2 -8.5 4.5t-9.5 2.5q-2 0 -4.5 -1t-2.5 -3t2.5 -2t3.5 -2 q2 -2 -1 -2t-3 -1q-4 0 -7.5 -6t-8.5 -8q-2 0 -1.5 1t-0.5 2q-1 2 -3.5 2.5t-2.5 2.5t2.5 6.5t-6.5 4.5q-4 0 -5.5 -3t-3.5 -6l-11 12l-8 1q0 4 1.5 7t-4.5 8q-3 2 -5.5 3.5t-5.5 1.5q-1 0 -4.5 -2t-6.5 -4t-3 -4t5 -2h-1q-3 0 -3 -4q0 -1 4.5 -2.5t6.5 -1.5q2 1 3 -0.5 t3 -1.5l4 1v-2q-1 -1 -1 -2l1 -4l-10 -5q-1 -1 -2 -1t-2 -1q0 -3 2.5 -6t-5.5 -3l-3 2q0 4 -8 6.5t-19.5 3.5t-23 1.5t-17.5 0.5l-16 -5l4 -9q-2 0 -2.5 -1.5t1.5 -2.5q-2 2 -7.5 7t-7.5 5l-8 2v0zM293 705q-2 1 -5 2t-5 1t-8 -2.5t-13.5 -5.5t-14.5 -6t-9 -4q7 1 12.5 4 t11.5 3l3 -2q3 -1 5.5 -1t4.5 -2q4 1 8 -1l3 2v4l-1 2l3 -1q3 0 6 5l-1 2v0zM390 765q79 0 150 -31t124.5 -84.5t84.5 -124.5t31 -150q0 -80 -31 -150.5t-84.5 -124t-124.5 -84.5t-150 -31q-80 0 -150.5 31t-124 84.5t-84.5 124t-31 150.5q0 79 31 150t84.5 124.5t124 84.5 t150.5 31zM231 329h-1h1z" />
<glyph unicode="&#xf0ad;" horiz-adv-x="778" d="M138 79q16 0 27.5 11.5t11.5 27.5q0 17 -11.5 28t-27.5 11q-17 0 -28 -11t-11 -28q0 -16 11 -27.5t28 -11.5zM782 507q-5 -45 -24.5 -83.5t-50.5 -67t-71 -44.5t-85 -16q-30 0 -62 8l-296 -296q-23 -23 -55 -23q-33 0 -56 23q-11 11 -24.5 23t-25.5 25.5t-20 28.5t-8 33 q0 16 6 30.5t17 25.5l297 297q-8 32 -8 60q0 48 18.5 91t50 74.5t74 50t90.5 18.5q46 0 88.5 -17.5t75.5 -49.5l-216 -79l-21 -115l90 -75z" />
<glyph unicode="&#xf0ae;" d="M855 413h-488v-75h488v75zM862 465q16 0 27 -11t11 -26v-105q0 -16 -11 -27t-27 -11h-825q-15 0 -26 11t-11 27v105q0 15 11 26t26 11h825v0zM855 128h-338v-75h338v75zM862 180q16 0 27 -11t11 -26v-106q0 -15 -11 -26t-27 -11h-825q-15 0 -26 11t-11 26v106q0 15 11 26 t26 11h825v0zM855 697h-188v-75h188v75zM862 750q16 0 27 -11t11 -26v-106q0 -15 -11 -26t-27 -11h-825q-15 0 -26 11t-11 26v106q0 15 11 26t26 11h825v0z" />
<glyph unicode="&#xf0b0;" horiz-adv-x="765" d="M727 750q16 0 27 -11t11 -27t-11 -27l-276 -276v-386q0 -16 -11 -27t-27 -11t-27 11l-115 115q-11 11 -11 27v271l-276 276q-11 11 -11 27t11 27t27 11h689v0z" />
<glyph unicode="&#xf0b1;" d="M900 306v-250q0 -23 -16.5 -39.5t-39.5 -16.5h-788q-23 0 -39.5 16.5t-16.5 39.5v250h348q-1 -3 -1 -9v-75q0 -27 19 -46.5t47 -19.5h75q27 0 46 19.5t19 46.5v75q0 6 -1 9h348zM488 306q9 0 9 -9v-75q0 -9 -9 -9h-75q-10 0 -10 9v75q0 9 10 9h75zM338 600h225v75h-225 v-75zM0 363v181q0 23 16.5 39.5t39.5 16.5h207v113q0 15 10.5 26t26.5 11h300q16 0 27 -11t11 -26v-113h206q23 0 39.5 -16.5t16.5 -39.5v-181h-900z" />
<glyph unicode="&#xf0b2;" horiz-adv-x="750" d="M709 290q17 17 29 12t12 -30v-233q0 -17 -12 -27q-11 -12 -27 -12h-233q-25 0 -30 12t12 29l81 81l-164 164l-166 -166l79 -79q17 -17 12 -29t-30 -12h-233q-15 0 -27 12q-12 10 -12 27v233q0 25 12 30t29 -12l79 -79l166 165l-165 165l-80 -80q-17 -17 -29 -12.5 t-12 29.5v233q0 15 11 28q13 11 28 11h233q25 0 30 -12t-12 -29l-78 -77l165 -165l162 163l-79 79q-17 17 -12 29t30 12h233q16 0 27 -11q12 -12 12 -28v-233q0 -25 -12 -30t-29 12l-79 79l-163 -163l165 -164l77 78v0z" />
<glyph unicode="&#xf0c0;" horiz-adv-x="918" d="M230 422q-19 -3 -34 -4.5t-29 -5t-27.5 -10.5t-28.5 -20h-111v184l50 7q-23 14 -35.5 37.5t-12.5 50.5q0 21 8 40t22 33.5t33 22.5t41 8q21 0 40 -8t33.5 -22t22.5 -33t8 -41q0 -26 -13.5 -50t-34.5 -38l32 -5q-3 -38 6.5 -75.5t29.5 -70.5zM918 566v-184h-111 q-15 13 -28.5 20t-27.5 10.5t-29 5t-34 4.5q37 63 37 134q0 3 -0.5 6t-0.5 6l33 5q-22 14 -35 37.5t-13 50.5q0 21 8 40t22.5 33.5t33.5 22.5t41 8q21 0 40 -8t33.5 -22.5t22.5 -33.5t8 -40q0 -27 -13 -50.5t-35 -37.5zM571 381q13 -2 38 -5t51.5 -6.5t49.5 -7t32 -6.5 q17 -5 34.5 -20.5t32 -36t23.5 -42.5t9 -40v-189q-4 -2 -10.5 -7t-13 -9.5t-13.5 -8t-11 -3.5h-668q-17 0 -26 10.5t-22 17.5v189q0 18 9 40t23 42t32 36t35 21q9 3 32.5 6.5t50 7t51 6.5t37.5 5q-45 29 -71 75t-26 100q0 43 16.5 81t45 66.5t66.5 45t81 16.5t81 -16.5 t66 -45t44.5 -66.5t16.5 -81q0 -53 -25.5 -99.5t-70.5 -75.5z" />
<glyph unicode="&#xf0c1;" horiz-adv-x="780" d="M349 220q-39 0 -75.5 15t-63.5 43l-153 152q-27 28 -42 64t-15 75q0 40 15.5 76t42 62.5t62 42t76.5 15.5q27 0 48.5 -5.5t40 -15.5t36 -24.5t35.5 -32.5l122 -123q-11 3 -23 4t-24 1q-26 0 -51.5 -5.5t-49.5 -18.5l-57 58q-19 19 -34 31.5t-43 12.5q-33 0 -55.5 -23 t-22.5 -55q0 -33 23 -56l79 -79l73 -73q23 -23 56 -23q20 0 29.5 7t25.5 16q2 6 11.5 9t15.5 3q11 0 22.5 -7.5t22 -18t20 -21.5t16.5 -18q-27 -42 -70.5 -65t-92.5 -23zM431 530q38 0 74.5 -15t64.5 -42l153 -153q27 -28 42 -64t15 -75q0 -41 -15.5 -76.5t-42 -62t-62 -42 t-76.5 -15.5q-27 0 -48.5 5.5t-40 15.5t-36 24.5t-35.5 32.5l-123 123q12 -2 24 -3.5t23 -1.5q54 0 101 24l58 -58q19 -19 34 -31.5t43 -12.5q33 0 55.5 22.5t22.5 55.5t-23 56l-79 79l-74 74q-22 22 -55 22q-20 0 -30.5 -6t-25.5 -16q-2 -7 -11.5 -9.5t-15.5 -2.5 q-11 0 -22.5 7.5t-22 18t-20 21t-16.5 17.5q27 42 70.5 65t93.5 23z" />
<glyph unicode="&#xf0c2;" horiz-adv-x="918" d="M791 434q57 -29 92 -83t35 -121q0 -48 -18 -89.5t-49.5 -73t-73 -49.5t-89.5 -18h-497q-39 0 -74 15t-61 41t-41 61t-15 74q0 34 11.5 64.5t31.5 55.5t47 42t59 25q-16 20 -25 44t-9 51q0 32 12 60t32.5 48.5t48.5 32.5t60 12q55 0 96 -35q9 37 30 69t50 55.5t65 36.5 t77 13q47 0 89 -18t73 -49t49 -73t18 -89q0 -28 -6.5 -53.5t-17.5 -48.5z" />
<glyph unicode="&#xf0c3;" horiz-adv-x="750" d="M184 234h382l-153 239v202h-75v-201zM739 104q22 -34 3 -69q-9 -17 -25 -26t-34 -9h-616q-18 0 -34 9t-25 26q-19 35 3 69l252 392v179h-38q-16 0 -26.5 11t-10.5 27q0 15 10.5 26t26.5 11h300q16 0 27 -11t11 -26q0 -16 -11 -27t-27 -11h-37v-180l251 -391v0z" />
<glyph unicode="&#xf0c4;" horiz-adv-x="897" d="M505 399q1 0 24.5 12.5t58.5 32t76 42.5t77.5 44t63.5 36t34 19q5 3 5 9q0 9 -10 9q-2 0 -25.5 -12.5t-58 -32t-75.5 -42.5t-77 -43.5t-63 -36t-34 -19.5q-5 -3 -5 -8q0 -10 9 -10zM372 331q16 0 27.5 11t11.5 28q0 16 -11.5 27.5t-27.5 11.5q-17 0 -28 -11.5t-11 -27.5 q0 -17 11 -28t28 -11zM126 71q16 0 27.5 11t11.5 28q0 16 -11.5 27.5t-27.5 11.5q-17 0 -28 -11.5t-11 -27.5q0 -17 11 -28t28 -11zM126 601q16 0 27.5 11.5t11.5 27.5q0 17 -11.5 28t-27.5 11q-17 0 -28 -11t-11 -28q0 -16 11 -27.5t28 -11.5zM897 601q0 -1 -10 -6.5 t-11 -7.5q-90 -55 -180 -107t-181 -105q91 -53 181 -105t180 -107q1 -1 11 -7t10 -7q0 -14 -13.5 -23t-26.5 -9q-5 0 -40 10.5t-85.5 27t-110 36t-113 38t-95 33t-56.5 20.5q-35 -20 -68.5 -40.5t-67.5 -41.5q0 -5 5 -12.5t10.5 -17.5t10 -24t4.5 -33q0 -26 -9.5 -49.5 t-26.5 -41t-40 -27.5t-50 -10t-50 10t-39.5 27t-26 40t-9.5 50q0 37 17 62t43 43t55.5 32.5t55.5 31.5q-1 2 -2 4.5t-1 5.5q0 8 6 13t14 5q5 0 7 -6t6 -6q2 0 13.5 4.5t25 10.5t24 11.5t11.5 6.5q1 2 2 6.5t1 5.5q-3 9 -4.5 16.5t-1.5 16.5t1.5 16.5t4.5 16.5q0 2 -1 6t-2 6 l-15 7t-33.5 15.5t-35 16t-20.5 10.5q-26 15 -56 29.5t-55.5 34t-42.5 44.5t-17 61q0 27 9.5 50t26 40t39.5 27t50 10t50 -10t40 -27.5t26.5 -41t9.5 -49.5q0 -19 -4.5 -33t-10 -24t-10.5 -17.5t-5 -12.5q34 -21 67.5 -41.5t68.5 -40.5q15 6 56.5 20.5t95.5 33t113 38 t109.5 36t85.5 27t40 10.5q13 0 26.5 -9t13.5 -23z" />
<glyph unicode="&#xf0c5;" horiz-adv-x="750" d="M470 631q-17 0 -38.5 0.5t-35.5 -13.5l-147 -147q-5 -5 -9 -14t-4 -17v-277h-207q-12 0 -20.5 8.5t-8.5 20.5v367h147q18 0 31 13t13 31v147h249q12 0 21 -8.5t9 -20.5v-90v0zM721 587q12 0 20.5 -8.5t8.5 -20.5v-529q0 -12 -8.5 -20.5t-20.5 -8.5h-411q-12 0 -21 8.5 t-9 20.5v367h1h146q19 0 31.5 13t12.5 31v147h250v0zM281 440l146 147v-147h-146zM147 603h-147l147 147v-147z" />
</font>
</defs>
</svg>
